<?xml version="1.0" standalone="no"?><!DOCTYPE svg PUBLIC "-//W3C//DTD SVG 1.1//EN" "http://www.w3.org/Graphics/SVG/1.1/DTD/svg11.dtd" ><svg xmlns="http://www.w3.org/2000/svg"><metadata></metadata><defs><font id="fonteditor" horiz-adv-x="256"><font-face font-family="e¹kc[R;g,yÀiw{OS" font-weight="400" font-stretch="normal" units-per-em="256" panose-1="2 0 0 0 0 0 0 0 0 0" ascent="224" descent="-54" x-height="0" bbox="1 -38 255 218" underline-thickness="0" underline-position="0" unicode-range="U+4eba-ff0c" /><missing-glyph horiz-adv-x="256"  /><glyph glyph-name="uni4EBA" unicode="&#x4eba;" d="M117 178 Q125 175 139 166 Q143 164 141 159 Q126 121 108 91 Q109 90 112 88 Q158 51 178 39 Q197 24 251 17 Q254 17 255 15 Q255 14 252 13 Q234 5 204 0 Q195 0 191 3 Q170 20 121 66 Q108 77 103 82 Q66 26 14 1 Q10 0 10 2 Q9 3 12 5 Q82 63 107 132 Q117 156 114 175 Q114 180 117 178 Z" /><glyph glyph-name="uni4ED6" unicode="&#x4ed6;" d="M145 202 Q157 198 164 193 Q166 193 166 190 Q162 163 160 115 Q168 118 182 123 Q190 126 193 127 Q193 133 193 140 Q193 141 194 142 Q194 142 196 141 Q205 135 212 129 Q214 127 212 124 Q209 116 206 104 Q205 99 202 88 Q200 82 193 55 Q188 45 184 42 Q181 40 180 43 Q172 54 166 60 Q165 61 165 62 Q166 63 168 63 Q170 62 177 62 Q180 61 182 65 Q189 86 192 116 Q178 112 160 104 Q159 74 159 52 Q159 41 154 30 Q152 28 150 30 Q147 34 143 37 Q142 39 142 42 Q146 69 147 99 Q143 98 135 94 Q127 91 123 89 Q123 61 125 29 Q125 13 140 10 Q175 4 218 11 Q227 12 232 22 Q240 37 245 49 Q246 53 248 53 Q249 53 249 48 Q249 46 249 32 Q248 11 248 6 Q246 0 242 0 Q191 -7 137 -1 Q112 1 111 24 Q110 47 108 82 Q99 78 92 73 Q90 72 88 73 Q87 74 84 76 Q81 79 80 79 Q79 81 79 81 Q79 82 80 82 Q82 83 87 85 Q91 87 108 94 Q108 108 108 122 Q107 135 104 142 Q103 145 103 146 Q104 147 106 145 Q107 145 109 143 Q118 139 121 137 Q125 136 124 126 Q123 114 123 100 Q135 105 147 109 Q148 127 148 157 Q148 185 143 200 Q143 203 145 202 ZM79 193 Q78 196 79 197 Q80 198 83 196 Q86 195 92 191 Q98 187 100 185 Q104 183 101 177 Q92 155 76 132 Q76 118 75 94 Q75 39 73 15 Q71 -15 63 -17 Q60 -18 57 -9 Q56 -6 55 -1 Q53 1 53 2 Q51 8 54 12 Q57 17 59 36 Q62 71 62 115 Q38 86 7 69 Q5 68 4 69 Q4 70 5 72 Q50 112 76 167 Q82 182 79 193 Z" /><glyph glyph-name="uni4F17" unicode="&#x4f17;" d="M116 209 Q130 204 137 198 Q142 194 136 188 Q135 187 134 185 Q133 183 132 182 Q134 180 142 173 Q154 161 162 153 Q211 105 250 92 Q252 90 252 89 Q252 88 249 88 Q244 87 224 85 Q218 84 215 84 Q211 84 208 86 Q208 86 207 87 Q183 110 161 137 Q145 157 127 175 Q122 169 119 162 Q76 93 11 66 Q5 64 9 68 Q74 115 109 180 Q119 198 114 207 Q112 210 116 209 ZM148 101 Q147 103 148 104 Q150 105 152 104 Q155 103 160 101 Q166 98 168 97 Q173 95 171 89 Q167 76 162 62 Q203 0 250 -7 Q253 -7 253 -9 Q253 -11 250 -12 Q234 -14 204 -15 Q203 -15 201 -14 Q178 15 157 50 Q133 0 102 -19 Q98 -21 96 -20 Q95 -19 98 -15 Q125 10 142 57 Q151 82 148 101 ZM99 84 Q71 12 16 -11 Q11 -13 14 -9 Q55 24 73 70 Q80 92 79 100 Q78 103 79 104 Q81 105 83 103 Q89 99 98 90 Q101 87 99 84 ZM103 4 Q94 24 79 36 Q77 37 77 38 Q78 39 80 39 Q81 39 84 38 Q99 34 107 31 Q111 29 111 25 Q112 19 109 5 Q107 2 106 1 Q104 1 103 4 Z" /><glyph glyph-name="uni5343" unicode="&#x5343;" d="M205 122 Q220 124 228 131 Q240 124 250 115 Q252 113 250 110 Q250 104 244 106 Q240 106 231 107 Q224 107 221 107 Q185 107 140 102 Q140 87 139 57 Q139 24 138 13 Q137 -14 131 -26 Q126 -31 123 -24 Q122 -21 119 -16 Q120 -17 118 -12 Q115 -7 117 -2 Q119 10 122 48 Q122 53 122 66 Q123 89 123 101 L114 100 Q73 96 22 83 Q20 83 18 85 Q11 91 12 94 Q11 97 11 101 Q11 102 12 102 Q16 99 40 102 Q44 103 47 103 Q85 106 123 111 L122 140 Q122 152 115 163 Q94 158 70 156 Q64 156 63 157 Q63 159 69 160 Q93 164 140 189 Q141 190 143 191 Q146 192 146 193 Q147 196 147 199 Q175 193 184 188 Q190 187 188 181 Q188 173 179 173 Q165 173 142 168 Q139 168 134 166 Q126 165 122 164 Q125 163 129 162 Q134 160 136 159 Q136 159 137 158 Q140 157 140 153 L140 114 Q175 117 205 122 Z" /><glyph glyph-name="uni5374" unicode="&#x5374;" d="M126 152 Q130 152 132 150 Q133 149 136 144 Q137 142 138 141 Q139 140 139 139 Q138 138 136 138 Q126 138 105 136 Q120 138 102 136 Q102 119 102 99 Q130 102 138 105 Q142 105 145 104 Q149 101 152 95 Q153 93 153 91 Q152 90 150 90 Q121 90 85 87 Q89 84 93 79 Q94 78 95 77 Q99 75 96 72 Q84 51 64 29 Q63 27 63 26 Q64 25 66 25 Q73 26 88 28 Q111 30 118 31 Q114 43 108 54 Q105 57 110 56 Q123 53 129 43 Q139 29 139 19 Q139 12 129 5 Q125 2 124 7 Q124 15 121 22 Q75 15 43 5 Q39 2 37 8 Q34 12 32 21 Q31 24 34 25 Q34 25 35 25 Q53 28 70 57 Q80 75 78 86 Q67 85 46 81 Q35 80 30 79 Q27 78 25 81 Q24 83 22 86 Q19 90 18 91 Q17 93 17 93 Q18 94 19 94 Q42 94 86 98 Q86 102 86 109 Q87 124 86 135 Q80 134 68 132 Q58 131 52 130 Q49 129 47 132 Q43 137 41 141 Q40 144 43 143 Q58 143 86 145 Q86 154 86 166 Q86 192 80 206 Q78 210 79 211 Q80 212 84 210 Q89 208 104 203 Q107 200 106 197 Q103 187 103 168 Q103 154 102 147 Q105 148 111 149 Q123 151 126 152 ZM212 158 Q214 160 217 158 Q225 153 232 147 Q235 146 233 143 Q229 129 225 84 Q222 69 214 60 Q211 57 209 61 Q205 69 192 80 Q193 79 191 81 Q190 82 190 83 Q190 84 192 84 Q192 84 193 84 Q198 82 202 83 Q208 83 209 88 Q214 110 213 139 Q213 143 210 142 Q199 142 171 138 Q172 90 171 38 Q171 -8 169 -31 Q168 -37 162 -32 Q157 -26 152 -17 Q151 -16 152 -12 Q152 -10 152 -9 Q158 27 156 112 Q156 140 151 155 Q150 157 151 158 Q152 159 153 158 Q160 155 168 148 Q201 150 212 158 Z" /><glyph glyph-name="uni56DE" unicode="&#x56de;" d="M193 -1 Q191 11 184 21 Q151 22 66 14 Q66 4 66 -3 Q66 -10 63 -8 Q57 -7 52 -3 Q48 0 48 10 Q51 70 43 150 Q43 151 42 155 Q40 167 38 171 Q37 173 39 174 Q40 175 42 174 Q44 173 47 170 Q54 166 57 162 Q127 165 182 171 Q198 172 207 179 Q211 182 214 179 Q222 174 226 169 Q229 168 227 163 Q223 152 222 142 Q218 64 211 18 Q208 6 200 -3 Q197 -6 196 -5 Q194 -5 193 -1 ZM61 151 Q61 144 62 124 Q65 58 66 25 Q92 27 142 31 Q174 34 178 34 Q179 34 181 33 Q186 33 188 31 Q194 32 195 41 Q195 43 196 48 Q204 116 202 152 Q203 160 196 159 Q152 159 61 151 ZM154 127 Q159 128 163 125 Q168 121 171 116 Q174 114 172 112 Q164 97 159 78 Q160 77 161 75 Q162 73 163 72 Q164 71 161 70 Q140 70 112 67 Q112 63 113 58 Q113 52 107 55 Q101 58 99 61 Q98 62 98 65 Q99 98 92 123 Q90 127 94 125 Q95 124 98 123 Q104 120 106 119 Q140 121 154 127 ZM149 115 Q128 113 109 111 Q110 104 112 82 Q111 85 112 75 Q121 76 140 78 Q144 79 146 79 Q150 95 153 110 Q154 116 149 115 Z" /><glyph glyph-name="uni5728" unicode="&#x5728;" d="M175 163 Q193 165 205 169 Q212 171 215 167 Q216 166 218 163 Q223 157 224 155 Q226 152 226 151 Q225 150 221 150 Q218 150 211 150 Q198 151 192 151 Q162 151 122 148 Q109 113 92 89 Q94 40 92 -6 Q91 -15 87 -20 Q82 -26 79 -25 Q76 -25 74 -18 Q72 -12 72 -6 Q77 20 79 73 Q51 42 8 30 Q2 29 2 30 Q2 31 8 34 Q69 67 97 128 Q98 131 101 137 Q103 143 104 146 Q66 142 51 139 Q46 139 43 141 Q39 146 36 152 Q35 154 36 154 Q36 155 38 155 Q61 154 107 157 Q113 183 112 206 Q112 209 113 209 Q114 210 117 208 Q119 207 125 202 Q130 198 132 196 Q137 192 135 187 Q131 172 126 158 Q135 159 153 161 Q167 162 175 163 ZM115 78 Q114 80 114 81 Q115 82 118 82 Q123 81 137 82 Q145 82 149 82 Q149 87 148 97 Q148 107 148 111 Q148 121 145 134 Q142 139 143 140 Q143 141 148 139 Q151 138 160 132 Q163 129 165 128 Q169 126 167 118 Q164 104 164 83 Q166 83 171 84 Q180 84 183 86 Q193 88 196 89 Q198 91 200 89 Q200 90 201 89 Q202 88 205 84 Q207 80 208 78 Q209 76 208 75 Q207 74 205 75 Q180 75 164 73 Q164 53 164 18 Q195 20 203 21 Q212 23 217 25 Q220 27 222 24 Q223 23 228 16 Q229 13 230 12 Q231 9 231 8 Q230 7 227 7 Q210 9 168 8 Q128 6 111 3 Q109 2 107 4 Q106 5 105 5 Q105 5 103 8 Q100 12 99 13 Q98 17 102 17 Q116 16 147 17 Q148 24 148 44 Q149 62 149 72 Q137 71 128 69 Q124 69 122 71 Q118 74 115 78 Z" /><glyph glyph-name="uni5904" unicode="&#x5904;" d="M7 -3 Q2 -5 1 -3 Q1 -1 6 0 Q60 26 82 65 Q80 68 77 69 Q63 79 54 82 Q41 70 24 62 Q20 60 19 61 Q18 62 22 65 Q64 105 73 156 Q74 170 71 179 Q70 185 74 184 Q84 179 92 173 Q94 170 94 166 Q91 150 86 137 Q104 137 112 143 Q114 145 116 144 Q120 143 126 137 Q129 135 127 132 Q121 121 118 111 Q111 84 100 65 Q127 42 171 19 Q205 1 250 -2 Q253 -3 254 -5 Q254 -6 251 -8 Q237 -13 209 -21 Q204 -21 200 -19 Q146 14 126 32 Q119 38 95 56 Q67 10 7 -3 ZM157 30 Q147 43 150 54 Q157 79 153 157 Q154 179 148 194 Q147 196 148 197 Q149 198 151 197 Q162 194 171 189 Q173 189 173 186 Q169 172 169 142 Q169 131 169 110 Q168 72 169 48 Q170 41 163 30 Q160 26 157 30 ZM84 129 Q74 104 58 87 Q73 89 80 82 Q84 78 88 75 Q98 94 104 119 Q107 126 99 127 Q93 129 84 129 ZM175 123 Q173 125 173 126 Q174 127 177 126 Q206 115 226 104 Q231 102 230 96 Q229 93 227 87 Q226 83 225 81 Q222 75 218 79 Q204 101 175 123 Z" /><glyph glyph-name="uni5BFB" unicode="&#x5bfb;" d="M18 75 Q17 77 17 78 Q17 79 19 79 Q59 81 144 88 Q143 104 137 112 Q136 114 137 115 Q138 116 141 115 Q142 114 145 113 Q149 112 158 108 Q162 107 161 104 Q160 102 160 97 Q159 92 159 89 L197 93 Q208 93 220 99 Q224 101 228 99 Q236 93 242 85 Q245 79 238 79 Q199 81 159 78 Q157 31 160 -4 Q160 -22 151 -31 Q146 -37 142 -31 Q141 -30 140 -28 Q130 -16 122 -10 Q121 -8 122 -7 Q122 -5 124 -6 Q132 -6 140 -6 Q143 -5 144 -2 Q146 36 144 77 Q79 72 34 64 Q27 61 23 67 Q23 68 21 71 Q19 74 18 75 ZM146 193 Q160 195 167 199 Q173 202 176 198 Q178 196 180 194 Q183 192 184 190 Q187 186 184 182 Q184 183 184 182 Q180 173 178 162 Q178 160 177 155 Q174 141 172 136 Q174 136 175 135 Q179 130 180 127 Q181 125 181 124 Q181 124 178 124 Q138 122 87 115 Q81 112 75 124 Q73 127 76 126 Q117 128 157 134 Q159 142 160 156 Q150 155 119 150 Q103 148 98 147 Q94 147 92 149 Q90 150 87 156 Q86 158 87 158 Q87 159 89 159 Q120 160 161 166 L162 178 Q164 185 157 184 Q122 183 87 178 Q83 176 81 180 Q79 182 77 186 Q76 188 77 188 Q77 189 79 189 Q106 189 146 193 ZM95 21 Q85 47 76 54 Q75 55 75 56 Q75 57 77 57 Q92 54 98 52 Q104 51 104 44 Q104 27 103 22 Q101 17 99 17 Q97 17 95 21 Z" /><glyph glyph-name="uni5EA6" unicode="&#x5ea6;" d="M145 180 Q139 196 127 209 Q125 211 125 212 Q125 213 129 212 Q143 209 151 206 Q157 205 155 196 Q155 189 153 181 Q153 178 152 178 Q165 178 179 180 Q194 182 201 185 Q207 188 209 184 Q209 183 210 182 Q214 176 215 174 Q217 171 213 170 Q190 170 161 169 Q164 166 169 163 Q173 161 170 153 Q169 149 167 138 Q189 141 196 143 Q199 145 201 142 Q202 141 204 138 Q205 136 206 135 Q207 133 207 132 Q206 131 204 131 Q199 130 185 130 Q173 129 166 129 Q166 126 165 121 Q164 111 163 105 Q169 107 173 108 Q176 109 179 106 Q183 102 184 100 Q184 100 184 99 Q186 95 182 95 Q145 95 110 90 Q106 89 106 92 Q105 93 104 96 Q103 97 103 98 Q103 101 105 100 Q111 100 119 100 Q119 114 118 124 Q107 122 99 122 Q95 121 94 124 Q93 125 92 128 Q91 129 91 130 Q91 133 93 132 Q107 132 117 133 L116 147 Q115 156 113 159 Q112 161 113 162 Q114 162 116 161 Q119 160 126 156 Q127 155 127 155 Q130 152 130 148 Q130 143 130 134 Q134 135 143 136 Q151 137 155 137 Q156 160 154 168 L153 169 Q101 165 85 162 Q97 155 93 148 Q92 145 91 140 Q90 137 90 136 Q73 21 7 -27 Q4 -29 3 -28 Q2 -27 4 -24 Q60 36 75 133 Q75 134 75 136 Q77 155 75 160 Q69 160 65 163 Q63 165 60 168 Q57 170 56 171 Q55 173 55 174 Q56 175 57 174 Q94 173 147 177 Q147 178 146 179 Q146 180 145 180 ZM104 52 Q115 54 123 47 Q132 38 141 32 Q151 42 158 57 Q160 63 154 64 Q126 62 101 58 Q96 56 93 60 Q92 63 90 66 Q89 69 92 68 Q123 68 155 72 Q162 73 169 77 Q172 79 175 77 Q178 76 183 71 Q187 68 184 64 Q180 60 174 50 Q162 30 153 23 Q194 -7 248 -8 Q251 -9 251 -10 Q252 -12 249 -13 Q231 -19 209 -24 Q203 -26 200 -23 Q163 0 145 15 Q120 -3 72 -10 Q66 -11 65 -9 Q65 -8 71 -6 Q111 5 133 25 Q112 43 104 48 Q101 49 101 50 Q101 51 104 52 ZM130 125 Q131 117 131 101 Q135 102 142 103 Q150 104 153 104 L154 128 Q142 127 130 125 Z" /><glyph glyph-name="uni706B" unicode="&#x706b;" d="M137 192 Q134 182 133 161 Q132 154 132 132 Q132 107 129 87 Q157 48 184 22 Q205 1 242 -8 Q247 -10 248 -12 Q247 -14 242 -15 Q237 -16 219 -17 Q206 -18 201 -18 Q193 -18 190 -14 Q167 10 126 70 Q108 -13 15 -30 Q12 -30 15 -28 Q119 10 115 131 Q115 149 115 169 Q115 193 109 207 Q107 209 108 210 Q109 210 113 209 Q123 206 132 199 Q139 196 137 192 ZM142 80 Q187 128 183 145 Q183 148 186 146 Q197 135 201 129 Q203 127 201 125 Q202 125 201 124 Q179 98 144 77 Q142 76 142 77 Q141 79 142 80 ZM69 136 Q89 117 71 77 Q71 74 66 75 Q61 79 58 82 Q54 85 57 89 Q67 103 66 134 Q66 136 67 137 Q68 137 69 136 Z" /><glyph glyph-name="uni706F" unicode="&#x706f;" d="M72 198 Q75 197 81 195 Q88 192 90 191 Q95 190 93 183 Q90 175 88 138 Q88 128 88 119 Q104 136 107 145 Q107 145 107 146 Q109 152 108 158 Q107 161 110 160 Q116 157 125 151 Q128 150 126 145 Q112 126 87 111 Q86 87 80 67 Q81 67 82 67 Q91 62 115 47 Q116 46 117 46 Q122 42 120 37 Q119 34 116 26 Q114 22 114 21 Q112 17 110 17 Q109 16 107 19 Q94 46 78 62 Q64 12 10 -7 Q5 -9 4 -7 Q3 -5 8 -2 Q76 36 73 139 Q73 186 69 195 Q68 198 68 199 Q69 200 72 198 ZM137 133 Q133 138 131 142 Q130 144 131 144 Q131 145 133 145 Q203 149 233 159 Q235 161 238 158 Q240 157 244 152 Q246 150 247 149 Q249 147 249 145 Q248 144 245 144 Q231 144 181 138 Q193 132 196 130 Q199 127 198 125 Q197 122 197 104 Q196 59 197 19 Q199 -3 184 -15 Q180 -20 178 -15 Q173 -4 161 6 Q159 8 159 9 Q159 10 163 9 Q182 0 180 50 Q180 71 180 86 Q179 131 175 136 Q175 137 175 137 Q152 133 142 131 Q139 131 137 133 ZM47 140 Q63 129 46 91 Q44 89 41 90 Q38 91 33 96 Q30 99 33 103 Q44 121 44 137 Q44 141 47 140 Z" /><glyph glyph-name="uni7136" unicode="&#x7136;" d="M194 125 Q199 126 200 123 Q200 122 201 121 Q203 118 204 116 Q204 115 204 115 Q206 112 203 112 Q198 112 187 112 Q176 111 170 111 Q189 81 204 65 Q222 49 236 45 Q238 44 238 43 Q238 41 236 40 Q230 39 215 38 Q218 38 207 37 Q199 37 196 43 Q178 75 165 100 Q154 58 110 33 Q106 32 105 33 Q104 35 107 38 Q143 67 151 109 Q148 108 143 108 Q137 107 134 107 Q130 107 128 109 Q128 109 127 111 Q126 112 124 118 Q122 121 125 120 Q138 120 153 121 Q155 133 155 150 Q156 182 147 197 Q146 199 146 201 Q147 202 149 201 Q150 201 153 200 Q167 194 171 191 Q174 191 174 186 Q174 170 171 142 Q171 131 169 122 Q186 124 194 125 ZM112 159 Q116 161 119 159 Q121 158 125 153 Q126 152 127 151 Q129 149 127 143 Q126 141 123 135 Q121 129 120 126 Q99 54 37 23 Q33 21 31 22 Q30 23 34 26 Q90 68 109 139 Q111 145 105 146 Q92 146 73 144 Q57 122 31 102 Q29 100 27 102 Q26 104 28 106 Q66 147 71 177 Q74 188 69 200 Q67 203 68 205 Q69 206 72 204 Q73 204 76 202 Q87 198 91 196 Q96 193 94 185 Q88 169 79 154 Q90 154 101 156 Q102 156 105 157 Q110 158 112 159 ZM56 20 Q63 17 66 13 Q69 11 67 8 Q56 -12 43 -27 Q40 -30 37 -26 Q33 -21 31 -17 Q29 -13 32 -11 Q53 4 52 19 Q53 23 56 20 ZM105 21 Q105 21 106 20 Q114 14 117 9 Q120 5 118 -2 Q118 -3 117 -4 Q116 -10 110 -18 Q108 -21 102 -20 Q97 -18 97 -15 Q101 1 100 19 Q100 23 105 21 ZM200 19 Q215 13 224 5 Q228 2 228 -3 Q228 -13 225 -20 Q225 -23 220 -24 Q216 -24 215 -21 Q211 -5 198 17 Q197 20 200 19 ZM197 170 Q206 167 222 157 Q226 154 226 150 Q225 140 223 132 Q222 128 221 128 Q219 127 217 131 Q207 143 194 167 Q192 170 193 171 Q193 172 197 170 ZM151 21 Q161 16 166 12 Q170 8 170 0 Q170 -6 167 -15 Q167 -19 161 -18 Q154 -18 155 -14 Q155 0 147 18 Q146 22 151 21 ZM50 99 Q47 102 51 101 Q63 99 77 94 Q80 94 80 89 Q80 88 79 85 Q77 77 76 73 Q75 70 73 70 Q72 70 70 72 Q61 85 50 99 ZM66 129 Q64 132 67 131 Q68 131 70 130 Q85 127 91 124 Q95 123 94 119 Q92 112 88 107 Q86 105 85 105 Q83 105 82 108 Q76 120 66 129 Z" /><glyph glyph-name="uni73CA" unicode="&#x73ca;" d="M234 114 Q239 117 243 113 Q244 111 247 108 Q250 105 251 103 Q252 101 251 100 Q250 99 248 100 Q232 100 218 99 Q218 27 219 6 Q219 -11 210 -21 Q206 -24 204 -20 Q201 -4 189 4 Q187 6 190 6 Q204 5 204 15 Q206 59 205 98 Q194 98 182 96 Q182 2 147 -21 Q146 -23 145 -21 Q144 -20 145 -18 Q169 17 169 95 L153 93 Q153 52 153 20 Q153 2 144 -7 Q140 -10 139 -6 Q135 5 124 14 Q123 16 123 16 Q124 17 125 17 Q140 16 138 26 Q141 52 141 92 Q129 91 119 89 Q116 8 71 -15 Q68 -18 66 -17 Q64 -16 67 -13 Q105 25 107 87 Q105 87 101 86 Q96 86 94 85 Q91 84 90 87 Q89 88 87 91 Q85 93 84 94 Q83 97 84 97 Q84 98 87 98 Q95 98 107 99 Q108 100 108 101 Q108 102 108 102 Q108 132 108 146 Q108 170 103 179 Q102 180 102 182 Q103 183 105 182 Q107 181 111 180 Q114 178 115 178 Q119 179 125 180 Q131 181 134 181 Q140 183 144 186 Q146 188 148 186 Q150 185 153 181 Q157 177 158 175 Q158 174 158 172 Q155 163 155 147 Q154 135 154 103 L169 104 L169 106 Q170 129 170 153 Q170 177 164 185 Q163 187 164 189 Q165 190 167 189 Q168 189 169 188 Q174 187 177 184 Q189 185 196 188 Q196 188 197 188 Q205 190 208 193 Q210 195 212 193 Q215 190 220 184 Q219 185 221 182 Q222 181 222 179 Q219 170 219 154 Q218 143 218 111 Q219 111 222 112 Q232 113 234 114 ZM27 108 Q26 110 26 110 Q27 111 28 111 Q34 112 48 113 Q55 114 58 114 Q58 121 58 130 Q58 144 54 154 Q43 153 35 150 Q32 150 31 151 Q28 153 24 158 Q22 160 21 161 Q19 162 21 163 Q26 162 38 163 Q42 163 43 163 Q47 163 54 164 Q75 166 88 169 Q91 171 92 169 Q93 168 96 165 Q98 162 99 161 Q101 158 99 158 Q91 158 73 156 Q64 155 60 155 Q66 151 72 143 Q73 142 73 140 Q73 137 73 131 Q72 122 72 116 Q76 118 84 119 Q85 120 86 120 Q89 120 90 119 Q94 116 97 113 Q99 110 96 109 Q84 109 72 107 Q71 92 71 65 Q74 66 79 67 Q85 69 88 70 Q90 70 92 69 Q93 68 96 66 Q99 63 100 62 Q102 60 100 60 Q73 56 28 42 Q25 41 24 43 Q19 47 13 56 Q11 58 14 58 Q20 57 34 57 Q46 59 58 62 Q58 68 58 78 Q59 96 58 105 Q55 105 49 103 Q42 102 39 101 Q38 100 36 101 Q32 104 27 108 ZM204 175 Q204 178 201 178 Q192 178 183 176 Q183 174 183 172 Q183 143 183 106 L205 109 Q205 159 204 175 ZM140 168 Q140 172 137 172 Q132 172 126 171 Q124 170 121 170 Q121 168 121 165 Q121 142 120 103 Q120 102 120 100 Q131 100 141 102 Q141 151 140 168 Z" /><glyph glyph-name="uni767E" unicode="&#x767e;" d="M17 168 Q92 169 193 175 Q209 177 219 180 Q223 182 226 178 Q234 169 238 164 Q240 161 237 160 Q200 163 131 161 Q133 159 136 157 Q138 155 139 154 Q143 151 140 146 Q126 125 117 116 Q141 118 148 119 Q157 119 167 123 Q172 126 176 122 Q182 118 187 113 Q191 109 188 104 Q185 97 185 84 Q184 48 178 10 Q175 -6 168 -16 Q167 -19 164 -18 Q162 -17 162 -14 Q160 0 153 12 Q111 12 90 8 Q90 -1 86 -7 Q83 -12 80 -7 Q80 -6 78 -3 Q76 0 75 0 Q73 3 74 8 Q78 47 76 103 Q74 115 72 118 Q71 121 74 121 Q82 119 89 116 Q90 116 90 116 Q91 115 91 115 Q99 115 110 115 Q111 117 113 122 Q118 137 121 147 Q123 154 121 160 Q56 158 30 154 Q24 154 24 156 Q22 157 19 162 Q17 164 16 165 Q15 167 15 167 Q16 168 17 168 ZM147 65 Q114 65 91 63 Q91 55 90 40 Q90 26 90 19 Q119 21 147 25 Q150 26 152 24 Q152 24 153 23 Q154 23 156 20 Q161 21 162 27 Q168 70 167 102 Q167 109 162 109 Q158 109 145 108 Q106 105 91 104 Q91 93 91 72 Q120 73 140 76 Q145 78 145 75 Q148 72 149 68 Q150 65 147 65 Z" /><glyph glyph-name="uni84E6" unicode="&#x84e6;" d="M54 171 Q51 177 48 181 Q73 183 103 184 Q103 190 101 195 Q101 202 94 211 Q92 214 95 213 Q100 211 109 206 Q111 204 112 204 Q115 203 115 200 Q115 198 115 193 Q114 188 114 185 Q128 187 141 188 Q142 192 142 198 Q143 204 141 213 Q142 212 141 215 Q140 218 143 217 Q152 212 157 209 Q160 207 158 204 Q157 200 155 194 Q154 190 154 189 Q159 190 169 191 Q178 192 183 192 Q194 193 197 196 Q200 198 202 195 Q205 192 208 186 Q210 183 205 182 Q189 182 151 180 Q148 171 144 164 Q147 164 151 164 Q154 165 160 168 Q161 170 164 168 Q169 165 172 163 Q173 162 173 159 Q169 144 166 126 Q164 117 161 110 Q160 106 156 106 Q153 106 153 110 Q152 115 147 118 Q129 118 111 115 Q115 113 120 109 Q123 106 121 105 Q121 104 119 102 Q118 100 117 99 Q130 100 156 103 Q176 105 186 106 Q195 107 201 111 Q204 113 206 111 Q208 108 215 101 Q216 99 215 99 Q215 98 213 98 Q205 98 188 96 Q200 98 185 96 Q182 96 176 96 Q167 95 163 95 Q209 51 250 47 Q252 47 252 45 Q252 44 250 43 Q248 42 241 40 Q225 35 219 34 Q216 32 214 35 Q168 74 151 94 Q144 93 129 92 Q116 90 110 90 Q109 89 107 87 Q101 80 94 72 Q130 73 144 79 Q146 79 148 78 Q149 78 152 76 Q154 74 155 73 Q157 72 156 69 Q150 60 147 35 Q150 35 155 36 Q160 36 162 36 Q175 38 181 42 Q184 44 186 42 Q192 38 198 32 Q200 31 198 27 Q192 14 185 -17 Q184 -25 170 -33 Q168 -34 167 -34 Q166 -34 166 -32 Q166 -30 165 -27 Q161 -15 159 -10 Q157 -7 160 -8 Q171 -13 173 -8 Q178 5 180 25 Q181 28 177 29 Q133 28 94 21 Q91 19 84 31 Q83 33 86 33 Q89 32 95 32 Q98 53 94 56 Q92 58 96 58 Q113 54 109 46 Q109 40 107 32 Q116 32 134 34 Q135 38 136 46 Q137 52 139 64 Q139 67 135 67 Q120 66 100 61 Q96 59 90 68 Q57 34 10 26 Q8 25 8 27 Q7 29 9 30 Q65 53 92 88 Q66 85 51 82 Q48 81 45 84 Q42 91 40 94 Q43 94 50 95 Q81 96 100 98 Q105 105 107 114 Q107 115 107 115 Q105 115 101 114 Q98 114 97 114 L97 110 Q96 104 91 107 Q89 109 87 111 Q85 113 85 116 Q87 143 81 159 Q81 161 82 162 Q82 162 84 161 Q86 161 89 159 Q91 158 91 158 Q94 158 100 159 Q105 159 108 160 Q105 163 104 165 Q104 171 104 176 Q77 173 58 170 Q55 170 54 171 ZM152 128 Q157 141 157 154 Q157 157 154 157 Q146 156 128 154 Q105 152 95 151 Q96 146 96 140 Q102 140 117 142 Q121 143 122 143 Q127 143 131 145 Q134 147 136 145 Q136 144 137 143 Q139 140 139 139 Q140 137 137 137 Q107 135 96 133 Q97 127 97 121 Q103 122 115 123 Q124 125 128 125 Q130 126 135 127 Q140 128 141 128 Q145 130 145 127 L148 124 Q149 124 149 124 Q152 125 152 128 ZM133 12 Q145 13 152 17 Q155 19 157 17 Q164 10 166 7 Q167 6 167 4 Q166 3 164 3 Q159 4 147 3 Q140 3 137 3 Q86 0 49 -4 Q45 -5 44 -2 Q43 -1 42 0 Q39 5 38 6 Q98 7 133 12 ZM136 163 Q139 172 140 179 Q136 179 127 178 Q118 178 114 177 Q114 169 113 160 Q117 161 125 162 Q132 163 136 163 Z" /><glyph glyph-name="uni90A3" unicode="&#x90a3;" d="M112 82 Q106 83 78 81 Q65 24 25 4 Q23 3 22 4 Q21 5 22 7 Q52 35 62 80 Q53 79 56 79 Q44 78 39 77 Q33 77 28 86 Q28 89 30 88 Q49 88 65 89 Q68 104 69 119 Q55 119 45 117 Q37 116 34 125 Q32 128 35 127 Q56 127 70 129 Q70 131 70 137 Q71 143 71 146 Q71 156 66 164 Q57 164 49 162 Q43 160 42 163 Q39 168 36 172 Q35 175 38 175 Q61 174 101 179 Q114 180 118 184 Q120 187 124 185 Q127 183 139 174 Q142 172 140 168 Q134 157 133 134 Q130 76 123 32 Q118 5 105 0 Q101 -2 100 1 Q96 19 86 30 Q85 32 86 33 Q87 34 88 33 Q104 28 105 36 Q108 44 112 72 Q113 78 114 82 Q113 82 112 82 ZM208 182 Q208 182 209 182 Q211 183 212 182 Q213 181 217 179 Q226 172 228 170 Q228 170 229 169 Q230 167 229 166 Q220 152 199 126 Q197 123 196 122 Q194 119 198 117 Q236 87 234 57 Q234 40 220 30 Q216 28 214 31 Q205 42 191 55 Q190 57 190 57 Q191 58 192 58 Q201 57 212 55 Q218 55 217 60 Q215 84 187 115 Q186 117 186 119 Q199 142 205 166 Q206 170 202 169 Q201 169 198 168 Q181 166 169 165 Q169 156 169 95 Q168 12 168 -4 Q167 -38 160 -36 Q156 -35 151 -23 Q149 -16 149 -12 Q149 -6 150 -2 Q151 0 151 4 Q151 2 152 7 Q154 29 155 81 Q155 126 154 153 Q153 171 149 179 Q149 182 151 181 Q155 180 164 175 Q166 174 168 173 Q196 177 208 182 ZM109 121 Q94 121 85 120 Q83 105 80 91 Q96 91 107 93 Q110 94 114 86 Q118 121 118 164 Q118 170 113 169 Q111 169 107 168 Q84 167 73 165 Q79 163 84 160 Q89 158 87 152 Q87 148 86 140 Q86 133 86 130 Q100 132 104 133 Q107 133 111 125 Q112 123 112 122 Q111 121 109 121 Z" /><glyph glyph-name="uni91CC" unicode="&#x91cc;" d="M86 78 Q86 78 84 79 Q79 81 77 83 Q76 85 76 89 Q77 91 77 104 Q77 128 73 151 Q72 166 64 175 Q63 177 63 178 Q64 179 66 178 Q81 174 85 171 Q129 174 157 177 Q158 177 161 178 Q166 178 169 180 Q170 180 172 181 Q179 184 182 186 Q186 189 189 185 Q191 184 199 176 Q203 172 198 165 Q195 161 194 158 Q190 142 185 97 Q185 94 183 88 Q181 84 174 77 Q172 75 170 75 Q168 75 167 79 Q162 89 159 92 Q151 92 137 91 Q136 80 136 56 Q169 58 182 61 Q186 63 187 60 Q192 55 193 52 Q195 47 189 47 Q177 48 135 46 Q135 27 134 9 Q142 10 158 11 Q188 13 197 14 Q208 16 215 19 Q223 24 227 19 Q233 14 245 5 Q247 -1 240 -2 Q228 0 207 1 Q201 1 198 1 Q125 1 68 -3 Q40 -5 24 -9 Q21 -11 18 -8 Q17 -7 13 -2 Q11 1 11 1 Q10 3 10 4 Q11 5 14 5 Q36 5 86 7 Q108 8 119 8 Q119 15 120 27 Q120 39 120 45 Q97 44 79 40 Q75 40 73 42 Q69 46 67 50 Q66 51 66 52 Q67 53 69 53 Q82 52 120 54 Q121 73 121 91 Q106 89 93 89 Q93 84 93 81 Q94 75 86 78 ZM162 132 Q159 131 150 131 Q142 130 137 130 Q137 116 137 101 Q153 103 154 104 Q160 106 165 98 Q168 98 168 101 Q172 130 174 164 Q174 168 171 168 Q165 167 153 167 Q141 166 135 166 Q137 162 137 154 Q137 147 137 139 Q140 139 145 140 Q153 141 153 141 Q159 145 164 136 Q165 132 162 132 ZM88 162 Q90 149 91 134 Q97 134 110 136 Q118 137 122 137 Q122 144 122 150 Q122 160 121 164 Q108 164 94 161 Q93 161 88 162 ZM92 125 Q93 116 93 98 Q107 98 122 100 Q122 115 122 128 Q100 126 92 125 Z" /><glyph glyph-name="uni9611" unicode="&#x9611;" d="M167 117 Q170 119 173 116 Q176 114 183 107 Q185 104 183 102 Q176 91 172 71 Q168 58 162 53 Q159 50 157 54 Q155 56 154 62 Q153 63 153 64 Q146 64 136 64 Q135 53 136 56 Q134 18 134 6 Q133 -7 125 -14 Q123 -17 121 -14 Q114 -1 106 7 Q105 9 108 8 Q120 5 121 11 Q122 16 122 29 Q123 41 123 47 Q96 13 58 6 Q56 6 56 7 Q56 8 57 9 Q95 27 120 63 Q116 63 110 62 Q103 62 100 61 L100 54 Q100 51 96 52 Q92 54 88 58 Q86 60 87 62 Q89 74 87 89 Q84 103 80 110 Q79 112 79 113 Q80 114 82 113 Q90 112 93 109 Q100 109 124 111 Q124 120 124 128 Q112 127 92 125 Q87 124 85 124 Q83 123 81 125 Q80 126 80 126 Q78 128 77 131 Q76 133 76 133 Q74 136 77 135 Q86 135 119 137 Q117 137 124 137 Q123 154 119 161 Q118 164 120 164 Q128 162 136 159 Q138 158 138 155 Q138 149 138 138 Q155 140 175 143 Q178 144 181 141 Q183 140 186 135 Q188 132 185 131 Q168 132 137 129 Q137 121 137 112 L146 113 Q161 114 167 117 ZM127 183 Q178 185 202 194 Q205 196 208 194 Q214 190 219 185 Q222 184 220 180 Q219 174 217 153 Q217 75 221 2 Q222 -15 207 -31 Q202 -34 201 -29 Q195 -13 185 0 Q182 1 186 1 Q188 0 193 0 Q198 0 200 0 Q204 -1 204 4 Q203 33 202 80 Q202 130 203 175 Q203 179 199 179 Q158 174 139 170 Q136 169 133 171 Q133 171 132 172 Q131 173 128 177 Q126 179 125 180 Q124 183 127 183 ZM58 157 Q60 155 60 152 Q58 65 53 -16 Q51 -25 44 -20 Q43 -18 41 -16 Q39 -13 37 -8 Q35 -3 36 0 Q45 61 44 126 Q44 153 39 160 Q38 162 39 163 Q39 164 41 163 Q53 160 58 157 ZM98 99 Q100 86 100 69 Q103 69 111 69 Q119 70 124 70 Q124 88 124 104 Q122 104 118 103 Q115 103 114 103 Q102 102 98 102 Q98 101 98 99 ZM173 7 Q160 29 142 46 Q141 48 142 49 Q142 50 145 49 Q168 37 178 30 Q184 27 183 21 Q180 11 179 8 Q178 5 176 5 Q175 5 173 7 ZM157 89 Q150 81 138 72 Q149 72 153 74 Q156 74 158 73 Q159 71 159 71 Q163 88 166 101 Q166 106 162 106 Q159 106 151 106 Q142 105 137 105 Q137 101 137 91 Q136 82 136 77 Q142 83 145 91 Q148 97 147 100 Q147 102 148 103 Q149 103 150 102 Q155 99 158 94 Q160 91 157 89 ZM69 199 Q83 196 93 191 Q96 191 96 187 Q96 172 90 160 Q90 158 88 159 Q87 159 86 161 Q79 185 68 197 Q66 199 69 199 ZM110 74 Q107 89 104 96 Q104 98 104 98 Q105 99 107 98 Q112 96 115 93 Q118 92 118 87 Q117 83 115 77 Q114 75 114 74 Q113 72 112 72 Q111 72 110 74 Z" /><glyph glyph-name="uni9996" unicode="&#x9996;" d="M75 -10 Q79 0 80 28 Q82 57 80 85 Q80 103 76 110 Q75 112 76 113 Q76 114 79 113 Q80 113 81 112 Q88 109 91 107 L98 108 Q113 130 109 143 Q49 138 33 132 Q29 131 26 134 Q21 140 18 146 Q17 149 17 150 Q18 151 21 151 Q29 150 57 150 Q88 150 125 153 Q148 182 150 190 Q154 199 145 207 Q141 210 147 209 Q165 205 173 198 Q179 194 174 188 Q158 168 133 154 Q142 154 159 156 Q178 157 188 158 Q212 161 219 167 Q223 169 226 166 Q227 165 230 162 Q236 157 238 154 Q240 152 238 149 Q237 145 232 147 Q217 149 185 147 Q150 146 117 144 Q124 141 127 138 Q131 135 127 130 Q117 115 109 109 Q115 110 128 111 Q136 113 140 113 Q152 116 154 119 Q157 121 160 119 Q162 117 168 114 Q172 112 173 111 Q176 109 174 105 Q170 94 170 69 Q169 22 170 -10 Q171 -19 162 -29 Q159 -31 156 -27 Q146 -12 142 -5 Q116 -5 94 -8 Q94 -11 94 -16 Q93 -22 93 -24 Q93 -27 92 -27 Q91 -28 88 -26 Q80 -22 76 -17 Q73 -14 75 -10 ZM139 4 Q143 6 146 1 Q147 1 147 0 Q152 0 152 2 Q154 22 154 100 Q155 104 149 104 Q144 104 127 102 Q105 99 95 98 Q95 94 95 86 Q96 76 96 71 Q100 72 111 73 Q128 76 132 77 Q135 79 136 76 Q136 75 137 74 Q139 71 139 70 Q140 67 139 67 Q139 66 136 66 Q123 66 96 63 Q96 51 95 38 Q115 40 135 44 Q138 44 139 43 Q139 43 140 41 Q142 38 142 36 Q144 33 139 33 Q136 33 126 32 Q102 30 95 29 Q95 14 94 0 Q128 4 139 4 ZM80 198 Q93 193 108 183 Q113 181 111 177 Q110 169 105 158 Q103 154 99 158 Q92 168 78 196 Q77 199 80 198 Z" /><glyph glyph-name="uniFF01" unicode="&#xff01;" d="M73 143 L66 47 L59 47 L52 144 Q51 165 62 165 Q74 165 73 143 ZM77 10 Q72 -3 60 -4 Q49 -3 49 8 Q52 25 65 27 Q79 25 77 10 Z" /><glyph glyph-name="uniFF0C" unicode="&#xff0c;" d="M80 29 L51 -21 L44 -18 L60 37 Q65 51 73 52 Q82 51 84 43 Q84 39 80 29 Z" /></font>
</defs>
</svg>
