<?xml version="1.0" standalone="no"?>
<!DOCTYPE svg PUBLIC "-//W3C//DTD SVG 1.1//EN" "http://www.w3.org/Graphics/SVG/1.1/DTD/svg11.dtd" >
<svg xmlns="http://www.w3.org/2000/svg">
<metadata>Generated by IcoMoon</metadata>
<defs>
<font id="iconmeta" horiz-adv-x="1024">
<font-face units-per-em="1024" ascent="960" descent="-64" />
<missing-glyph horiz-adv-x="1024" />
<glyph unicode="&#x20;" horiz-adv-x="512" d="" />
<glyph unicode="&#xe000;" glyph-name="user-female" d="M960.032 157.312l-278.496 132.064c37.152 18.624 182.256 24.528 194.256 57.28 0 0-57.344 88.016-71.344 202.336-5.44 44.368-14.752 102.592-24 184.592-15.008 133.008-126.88 226.416-268.192 226.416-0.080 0-0.176 0-0.256 0-0.096 0-0.192 0-0.256 0-141.312 0-253.184-93.408-268.176-226.4-9.248-82-18.56-140.224-24-184.592-14-114.336-71.344-202.336-71.344-202.336 12-32.752 157.088-38.656 194.256-57.28l-278.512-132.080c0 0-63.968-22.464-63.968-75.472v-84.528c0-35.376 28.624-61.312 63.968-61.312h896.064c35.344 0 63.968 25.936 63.968 61.312v84.528c0 53.008-63.968 75.472-63.968 75.472zM64 0v81.84c0 3.408 12.096 11.6 21.936 15.344 2.128 0.752 3.44 1.344 5.44 2.32l278.496 132.064c22.128 10.464 36.32 32.688 36.592 57.152 0.256 24.464-13.44 46.976-35.312 57.936-21.68 10.88-50.336 16.256-95.248 24.032-10.656 1.872-25.216 4.496-39.344 7.312 18.32 41.104 38.56 98.592 46.528 163.632 1.968 16.192 4.496 34.416 7.312 54.592 4.848 34.336 10.848 77.872 16.752 130.224 11.168 98.864 95.28 169.552 204.592 169.552 0.064 0 0.16 0 0.256 0 0.080 0 0.176 0 0.256 0 109.312 0 193.44-70.688 204.592-169.568 5.904-52.336 11.904-95.888 16.752-130.224 2.816-20.176 5.344-38.4 7.312-54.592 7.968-65.024 28.224-122.512 46.528-163.632-14.128-2.816-28.688-5.44-39.344-7.312-44.912-7.776-73.568-13.152-95.248-24.032-21.872-10.976-35.568-33.472-35.312-57.936 0.288-24.464 14.464-46.688 36.592-57.152l278.496-132.064c2-0.976 3.312-1.568 5.44-2.32 9.84-3.744 20.496-11.936 21.936-15.344l0.032-81.824h-896.032z" />
<glyph unicode="&#xe001;" glyph-name="users" d="M746 124.72l-201.472 111.6c74.88 58.912 95.216 174.688 95.216 239.6v135.12c0 89.472-118.88 189.12-238.288 189.12-119.376 0-241.408-99.664-241.408-189.12v-135.12c0-59.024 24.976-178.432 100.624-239.088l-206.672-112.112c0 0-54-24.064-54-54.064v-81.088c0-29.84 24.224-54.064 54-54.064h692c29.808 0 54.032 24.224 54.032 54.064v81.088c0 31.808-54.032 54.064-54.032 54.064zM736.032-0.496h-672.032v57.216c4.592 3.344 11.008 7.216 16.064 9.536 1.504 0.688 3.008 1.408 4.432 2.224l206.688 112.096c18.848 10.224 31.344 29.184 33.248 50.528s-7.008 42.256-23.712 55.664c-53.664 43.024-76.656 138.32-76.656 189.152v135.12c0 45.968 86.656 125.12 177.408 125.12 92.432 0 174.288-78.064 174.288-125.12v-135.12c0-50.128-15.568-145.84-70.784-189.28-16.912-13.312-26-34.224-24.224-55.664 1.808-21.44 14.256-40.528 33.12-50.848l201.472-111.6c1.776-0.976 4.032-2.032 5.904-2.848 4.72-2 10.528-5.344 14.784-8.288v-57.888zM969.968 284.064l-204.464 111.6c74.88 58.912 98.224 174.688 98.224 239.6v135.12c0 89.472-121.872 190.128-241.28 190.128-77.6 0-156.944-42.192-203.12-96.224 26.336-1.632 55.376-1.664 80.464-9.664 33.712 26.256 76.368 41.872 122.656 41.872 92.432 0 177.28-79.056 177.28-126.128v-135.12c0-50.128-18.56-145.84-73.776-189.28-16.912-13.312-26-34.224-24.224-55.664 1.808-21.44 14.256-40.528 33.12-50.848l204.464-111.6c1.776-0.976 4.032-2.032 5.904-2.848 4.72-2 10.528-5.344 14.784-8.288v-56.912h-129.184c19.504-14.72 25.408-35.776 32.976-64h106.192c29.808 0 54.032 24.224 54.032 54.064v80.096c-0.016 31.84-54.048 54.096-54.048 54.096z" />
<glyph unicode="&#xe005;" glyph-name="user" d="M511.728 896c108.672 0 223.92-91.536 223.92-159.856v-159.92c0-61.552-25.6-179.312-94.256-233.376-17.504-13.776-26.592-35.68-23.968-57.808 2.624-22.16 16.592-41.312 36.848-50.624l278.496-132.064c2.176-0.992 26.688-5.104 26.688-39.344l0.032-62.464-895.488-0.048v64.944c0 25.44 19.088 33.424 26.72 36.944l281.024 132.624c20.16 9.248 34.064 28.32 36.768 50.32 2.72 22-6.16 43.84-23.456 57.712-66.48 53.376-97.456 170.704-97.456 233.184v159.92c0.016 66.848 116.416 159.856 224.128 159.856M511.728 960c-141.312 0-288.128-117.936-288.128-223.856v-159.92c0-69.872 31.888-211.248 121.392-283.088l-281.040-132.64c0 0-63.952-28.496-63.952-63.968v-96.032c0-35.344 28.64-63.968 63.952-63.968h895.552c35.344 0 63.968 28.624 63.968 63.968v96.032c0 37.6-63.968 63.968-63.968 63.968l-278.496 132.064c88.656 69.776 118.656 206.848 118.656 283.664v159.92c0 105.92-146.64 223.856-287.936 223.856v0z" />
<glyph unicode="&#xe007;" glyph-name="speedometer" d="M511.984 923.872c-281.968 0-511.344-229.408-511.344-511.376 0-177.152 89.68-339.184 239.904-433.408 14.944-9.472 34.688-4.88 44.096 10.096s4.88 34.72-10.096 44.096c-54.096 33.952-99.040 78.048-133.424 128.88l33.552 19.376c15.312 8.848 20.56 28.4 11.712 43.712-8.88 15.344-28.464 20.56-43.712 11.712l-33.6-19.392c-24.4 50.512-39.296 105.792-43.28 163.424h35.616c17.68 0 32 14.32 32 32s-14.32 32-32 32h-35.456c4.24 58.688 19.776 114.304 44.56 164.592l32.16-18.56c5.024-2.912 10.528-4.288 15.968-4.288 11.056 0 21.808 5.744 27.744 16 8.848 15.312 3.6 34.88-11.712 43.712l-31.84 18.368c32.112 46.832 72.864 87.296 119.984 119.024l18.016-31.2c5.936-10.288 16.688-16 27.744-16 5.44 0 10.944 1.376 15.968 4.288 15.312 8.848 20.56 28.4 11.712 43.712l-17.952 31.072c49.328 23.792 103.68 38.656 160.976 42.816v-39.872c0-17.68 14.32-32 32-32s32 14.32 32 32v40c58.592-4.080 114.128-19.392 164.384-43.952l-17.36-30.048c-8.848-15.312-3.6-34.88 11.712-43.712 5.024-2.912 10.528-4.288 15.968-4.288 11.056 0 21.808 5.712 27.744 16l17.28 29.936c46.688-31.776 87.072-72.144 118.88-118.816l-29.968-17.312c-15.312-8.848-20.56-28.4-11.712-43.712 5.936-10.288 16.688-16 27.744-16 5.44 0 10.944 1.376 15.968 4.288l30.128 17.392c24.592-50.272 39.952-105.824 44.048-164.432h-35.136c-17.68 0-32-14.32-32-32s14.32-32 32-32h35.12c-4.048-56.88-18.592-111.44-42.496-161.312l-31.68 18.288c-15.28 8.848-34.912 3.568-43.712-11.712-8.848-15.312-3.6-34.88 11.712-43.712l31.776-18.352c-35.104-52.24-81.44-97.392-137.36-131.824-15.056-9.28-19.712-29.008-10.464-44.032 6.064-9.808 16.528-15.216 27.28-15.216 5.712 0 11.536 1.536 16.752 4.752 152.464 93.904 243.472 256.784 243.472 435.632 0 281.952-229.408 511.36-511.376 511.36zM748.112 512.272c15.296 8.848 20.544 28.4 11.712 43.712-8.832 15.296-28.416 20.544-43.712 11.696l-173.824-100.352c-9.28 5.248-19.856 8.496-31.28 8.496-35.28 0-63.84-28.592-63.84-63.808 0-35.248 28.576-63.84 63.84-63.84 35.28 0 63.84 28.592 63.84 63.84 0 0.064-0.016 0.144-0.016 0.208l173.28 100.048z" />
<glyph unicode="&#xe00f;" glyph-name="screen-tablet" d="M832.144 960h-640.288c-53.024 0-96-42.976-96-96v-832c0-53.024 42.976-96 96-96h640.288c53.024 0 96 42.976 96 96v832c0 53.024-42.976 96-96 96zM864.144 32c0-17.664-14.336-32-32-32h-640.288c-17.664 0-32 14.336-32 32v832c0 17.664 14.336 32 32 32h640.288c17.664 0 32-14.336 32-32v-832zM512.048 159.824c-35.28 0-63.84-28.592-63.84-63.824s28.56-63.84 63.84-63.84c35.264 0 63.84 28.608 63.84 63.84s-28.576 63.824-63.84 63.824zM576.048 864h-128c-17.664 0-32-14.336-32-32s14.336-32 32-32h128c17.664 0 32 14.336 32 32s-14.336 32-32 32z" />
<glyph unicode="&#xe010;" glyph-name="screen-smartphone" d="M704.144 960h-384.288c-53.024 0-96-42.976-96-96v-832c0-53.024 42.976-96 96-96h384.288c53.024 0 96 42.976 96 96v832c0 53.024-42.976 96-96 96zM736.144 32c0-17.664-14.336-32-32-32h-384.288c-17.664 0-32 14.336-32 32v832c0 17.664 14.336 32 32 32h384.288c17.664 0 32-14.336 32-32v-832zM512.048 159.824c-35.28 0-63.84-28.592-63.84-63.824s28.576-63.84 63.84-63.84c35.28 0 63.84 28.608 63.84 63.84s-28.56 63.824-63.84 63.824zM576.048 864h-128c-17.664 0-32-14.336-32-32s14.336-32 32-32h128c17.664 0 32 14.336 32 32s-14.336 32-32 32z" />
<glyph unicode="&#xe011;" glyph-name="screen-desktop" d="M960 864.192h-896c-35.184 0-64-28.8-64-64v-544.192c0-35.184 28.816-63.984 64-63.984h416v-96.208h-160c-17.664 0-32-14.336-32-32s14.336-32 32-32h384c17.664 0 32 14.336 32 32s-14.336 32-32 32h-160v96.208h416c35.184 0 64 28.8 64 63.984v544.192c0 35.2-28.816 64-64 64zM960 256h-896v544.192h896v-544.192z" />
<glyph unicode="&#xe012;" glyph-name="plane" d="M934.32 894.096v0c10.432 0 17.776-1.936 21.6-3.408 4.592-12.224 10.752-56.032-34.528-101.344l-230.992-230.976 1.664-28.656c3.504-59.968 10-167.44 15.6-259.568 4.944-82 9.632-159.44 9.936-166.032 0.16-4.528 0.224-5.6-4-10.688-9.44-11.472-27.056-30.912-41.904-47.024-23.024 62.032-71.408 193.056-98.128 266.4l-34.336 94.368-71.024-71.024-130.608-125.584-18.192-18.16-0.56-25.68c-0.432-20.496-0.336-57.28-0.288-89.712 0.064-22.592 0.128-43.12-0.032-54.432-0.288-0.528 4.368-1.152 3.936-1.904-2.784 4.464-5.776 9.28-8.944 14.288-26.336 42-62.784 100.096-73.904 118.224l-8.128 13.28-13.344 8.064c-48.528 29.312-102.288 63.152-135.088 84.288 1.136 0.656 2.064-2.816 2.816-2.416h2.128c10.32 0 27.376-0.224 46.496-0.496 25.008-0.336 53.376-0.752 75.088-0.752 8.32 0 15.712 0.064 21.664 0.192l25.68 0.592 18.16 18.16 125.744 129.712 70.784 70.752-93.936 34.56c-70.592 25.968-205.808 76.464-269.056 100.224 16.224 14.944 35.776 32.688 47.184 42.128 3.184 2.624 5.664 3.968 7.376 3.968l2.256-0.064c7.056-0.336 94.688-6.064 179.408-11.6 89.936-5.872 191.44-12.496 249.152-16.16l28.848-1.808 231.024 231.040c32.448 32.4 64.32 37.248 80.448 37.248M934.32 958.096c-37.808 0-84.224-14.528-125.68-56l-210.608-210.592c-118.624 7.504-422.432 27.6-429.968 27.808-1.344 0.064-3.008 0.128-4.88 0.128-10.256 0-27.968-1.968-48.128-18.624-23.664-19.568-73.008-65.968-73.008-65.968-11.904-11.936-17.936-26.72-16.496-40.624 0.88-8.4 5.44-23.712 26.064-31.776 12.528-4.912 211.904-79.504 303.968-113.376l-125.744-129.712c-5.568-0.128-12.464-0.192-20.256-0.192-38.336 0-97.776 1.248-121.6 1.248-3.152 0-5.68 0-7.472-0.064-7.248-0.224-22.256 3.344-61.84-29.744l-2.816-2.624c-11.872-11.872-14.656-23.712-14.912-31.536-0.256-8.064 1.904-19.68 13.568-29.024 7.008-5.664 96.848-63.184 170.528-107.68 17.664-28.816 98.944-158 103.184-165.008 6.192-10.464 16.32-16.432 28.432-16.816 0.336 0 0.656 0 1.008 0 11.776 0 23.872 5.84 35.712 17.344 33.504 39.184 28.88 55.408 29.024 62.224 0.528 21.376-0.368 111.936 0.4 147.84l130.592 125.6c33.376-91.68 106.336-289.008 111.216-301.568 8.128-20.624 23.44-25.152 31.84-26 1.376-0.16 2.784-0.224 4.16-0.224 12.624 0 25.712 5.936 36.432 16.656 0 0 46.256 49.088 65.904 72.976 19.68 23.872 18.912 44.256 18.528 53.872-0.16 6.656-18.688 308.816-25.568 426.816l210.656 210.656c74.656 74.688 62.784 164.688 35.056 192.368-12.24 12.304-37.024 21.616-67.296 21.616v0z" />
<glyph unicode="&#xe013;" glyph-name="notebook" d="M849.152 960h-638c-46 0-66.032-34-66.032-66v-127.312h-34.928c-17.312 0-31.344-14.032-31.344-31.344s14.032-31.344 31.344-31.344h34.928v-128.752h-31.936c-17.312 0-31.344-14.032-31.344-31.344s14.032-31.344 31.344-31.344h31.936v-129.44h-32.624c-17.312 0-31.344-14.032-31.344-31.344s14.032-31.344 31.344-31.344h32.624v-128.464h-32.624c-17.312 0-31.344-14.032-31.344-31.344s14.032-31.344 31.344-31.344h32.624v-129.28c0-53.024 41.536-64 64.528-64h639.504c53.024 0 96 42.976 96 96v832c0 53.024-42.96 96-96 96zM209.12 0v129.28h33.344c17.312 0 31.344 14.032 31.344 31.344s-14.032 31.344-31.344 31.344h-33.344v128.464h33.344c17.312 0 31.344 14.032 31.344 31.344s-14.032 31.344-31.344 31.344h-33.344v129.44h34.032c17.312 0 31.344 14.032 31.344 31.344s-14.032 31.344-31.344 31.344h-34.032v128.752h31.024c17.312 0 31.344 14.032 31.344 31.344s-14.032 31.344-31.344 31.344h-31.024v127.312c0 0.752 0.064 1.376 0.16 1.936 0.496 0.032 1.12 0.064 1.872 0.064h510v-896h-512.032zM881.152 32c0-17.664-14.336-32-32-32h-64v896h64c17.664 0 32-14.336 32-32v-832z" />
<glyph unicode="&#xe014;" glyph-name="moustache" d="M792.848 223.28c-101.344 0-158.864 47.632-196.944 79.152-13.472 11.152-25.728 21.904-36.88 31.664-16.912 14.848-38 33.344-45.344 35.904-0.224 0-3.712 0.16-3.936 0.192-1.168-0.096-4.144-0.688-4.448-0.72-5.072-2.064-23.088-17.568-37.568-30-13.136-11.28-28.112-24.16-45.040-37.376l-3.088-2.368c-43.472-33.936-97.584-76.16-193.152-76.16-70.992 0-140.928 32.128-182.576 83.872-27.92 34.688-57.296 95.024-38.672 185.472 2.256 10.944 10.016 19.904 20.432 23.632 10.48 3.776 22.016 1.712 30.608-5.376 0.624-0.464 22.576-17.344 59.056-17.344 18.368 0 37.504 4.336 56.832 12.944 33.136 14.752 56.736 56.128 81.712 84.064 34.176 38.16 72.848 81.408 136.688 81.904 44.048 0 83.792-16.288 119.248-48.496 35.312 32.064 74.768 48.256 117.68 48.256 65.104-0.496 104.592-43.776 139.44-82 25.44-27.872 49.472-69.216 82.608-83.968 19.328-8.592 38.672-12.944 57.488-12.944 37.872 0 61.504 17.312 62.448 18.064 8.768 6.496 20.32 8.192 30.48 4.224 10.144-4 17.68-12.88 19.712-23.664 17.088-89.44-12.96-149.408-41.184-183.968-42.768-52.4-113.904-84.96-185.6-84.96zM510.736 434.128c0.992 0 3.68-0.096 4.624-0.192 0.032 0 4.688-0.336 4.688-0.368 0.336-0.032 3.008-0.368 3.296-0.432 23.152-3.28 44.624-22.128 77.216-50.688 10.704-9.408 22.496-19.744 35.472-30.496 34.784-28.816 78.096-64.656 156.816-64.656 53.312 0 105.744 23.632 136.784 61.68 20.4 24.976 31.008 54.72 31.68 88.784-15.024-4.688-33.28-8.192-54.32-8.192-27.664 0-55.568 6.192-82.976 18.368-45.248 20.096-76.304 69.12-103.68 99.152-34.528 37.872-57.472 61.088-92.080 61.376-46.16 0-75.952-29.056-94.416-50.912-6.032-7.12-14.816-11.216-24.096-11.216v0c-9.28 0-18.080 4.128-24.080 11.248-18.528 21.936-48.416 51.12-93.84 51.12-35.088-0.256-57.408-23.28-90.992-60.848-27.056-30.224-57.696-79.472-103.232-99.68-27.392-12.192-55.104-18.368-82.304-18.368-20.4 0-38.064 3.408-52.624 8.032-0.032-34.72 10.112-64.912 30.336-90.032 29.936-37.152 81.040-60.256 133.44-60.256 74 0 114.896 31.936 154.464 62.816l3.088 2.416c16.048 12.528 30.24 24.752 42.688 35.44 28.512 24.496 47.328 40.688 67.648 44.288v0c0.016-0.016 9.696 1.616 16.4 1.616z" />
<glyph unicode="&#xe017;" glyph-name="magic-wand" d="M1020.512 530.624l-102.784 153.68 51.152 178.816c3.184 11.216 0.064 23.28-8.224 31.504-8.256 8.256-20.256 11.312-31.536 8.032l-178.512-52.128-154.288 103.904c-9.712 6.528-22.16 7.312-32.464 1.936-10.368-5.312-17.024-15.872-17.408-27.504l-5.536-185.936-146.496-114.592c-9.184-7.184-13.712-18.816-11.872-30.32s9.808-21.088 20.816-25.024l137.456-49.28c-0.928-0.736-1.904-1.392-2.768-2.256l-530.752-530.752c-12.496-12.496-12.496-32.752 0-45.248 6.256-6.256 14.432-9.376 22.624-9.376s16.368 3.12 22.624 9.376l530.752 530.752c2.064 2.064 3.664 4.4 5.040 6.816l53.792-147.552c4-10.944 13.632-18.848 25.152-20.656 1.632-0.256 3.28-0.368 4.912-0.368 9.808 0 19.184 4.528 25.312 12.432l113.776 147.168 183.904 6.56c11.664 0.4 22.16 7.12 27.44 17.536 5.264 10.384 4.448 22.848-2.112 32.48zM794.048 537.456c-9.504-0.32-18.368-4.88-24.192-12.4l-87.472-113.104-48.976 134.32c-3.248 8.944-10.32 15.936-19.28 19.152l-134.592 48.256 112.624 88.064c7.504 5.872 11.968 14.752 12.288 24.256l4.256 142.944 118.592-79.872c7.904-5.312 17.776-6.816 26.848-4.192l137.248 40.096-39.344-137.472c-2.592-9.152-1.008-18.976 4.336-26.848l80.56-118.128-142.896-5.072z" />
<glyph unicode="&#xe018;" glyph-name="hourglass" d="M833.056 895.392h-64.464v-215.408c0-104.384-56.656-183.36-178.096-245.2 126.064-63.808 179.104-142.16 179.104-259.072 0-76.128-0.336-140-0.592-175.12h64.064c17.68 0 32-14.288 32-31.968s-14.32-32-32-32h-642.128c-17.68 0-32 14.32-32 32s14.32 31.968 32 31.968h65.936c-0.24 35.12-0.592 99.008-0.592 175.12 0 116.912 52.288 195.248 178.144 259.056-121.232 61.84-177.136 140.816-177.136 245.2v215.424h-66.352c-17.68 0-32 14.304-32 32 0 17.664 14.32 31.984 32 31.984h642.128c17.68 0 32-14.32 32-31.984-0.016-17.696-14.32-32-32.016-32zM320.272 175.712c0-76.288 0.352-140.224 0.592-175.12h384.176c0.224 34.912 0.592 98.848 0.592 175.12 0 89.008-33.12 158.032-193.184 224.4-160.016-66.368-192.176-135.392-192.176-224.4zM704.624 895.392h-383.36v-215.408c0-61.376 20.64-140.416 191.168-210.528 170.56 70.112 192.192 149.152 192.192 210.528v215.408z" />
<glyph unicode="&#xe01b;" glyph-name="game-controller" d="M743.216 884.448c-25.6 12.016-49.808 23.328-71.84 34.384-56.464 28.288-107.664 42.032-156.464 42.032-98.288 0-166.304-56.704-208.96-99.36l-206.848-207.072c-110.688-110.8-128.368-223.6-57.264-365.808 11.024-22.080 22.368-46.336 34.368-72.032 64.704-138.384 131.584-281.488 241.056-281.488 3.072 0 6.112 0.096 9.216 0.336 112.976 8.848 145.024 154.288 173.312 282.592 4.496 20.32 8.752 39.808 13.12 57.28 7.6 30.208 22.56 48.976 63.552 90.064l5.632 5.664 3.472 3.472 9.12 9.088c41.088 41.088 59.856 56.032 90.096 63.664 17.312 4.352 36.752 8.64 57.024 13.088 128.224 28.304 273.6 60.368 282.4 173.52 8.88 114.832-138.464 183.84-280.992 250.576zM958.464 639.664c-6.224-79.776-184.816-103.328-291.104-129.984-47.008-11.872-75.616-36.752-118.784-79.936-3.008-3.008-6.032-6.016-9.088-9.072-3.024-3.024-6.032-6.096-9.056-9.088-43.168-43.216-68-71.808-79.824-118.88-26.672-106.384-50.192-285.168-129.872-291.44-1.44-0.112-2.88-0.144-4.32-0.144-84.544 0-155.68 192.24-218.448 317.664-63.744 127.504-36.432 210.224 45.36 292.096 15.696 15.728 35.216 35.248 59.136 59.184 24.432 24.464 53.488 53.552 87.92 88 23.904 23.936 43.408 43.424 59.12 59.184 50.8 50.848 101.936 80.64 163.92 80.64 37.808 0 79.632-11.056 127.872-35.248 127.456-63.904 323.888-136.48 317.168-222.976zM478.784 608.72h64v64h-64v-64zM478.784 704.72h64v64h-64v-64zM574.784 704.72h64v64h-64v-64zM574.784 608.72h64v64h-64v-64zM329.888 416.56l24.336 24.336c12 12 12 31.472 0 43.456-12 12-31.44 12-43.44 0l-24.352-24.352-24.352 24.352c-12 12-31.44 12-43.44 0s-12-31.456 0-43.456l24.352-24.352-24.352-24.352c-12-11.984-12-31.44 0-43.44s31.456-12 43.44 0l24.352 24.336 25.056-25.056c12-12 31.44-12 43.44 0s12 31.472 0 43.472l-25.040 25.056z" />
<glyph unicode="&#xe01c;" glyph-name="fire" d="M508.416-63.28c-241.248 0-412.368 167.28-412.368 397.776 0 122.368 73.376 254.192 76.496 259.712 6.368 11.344 18.88 17.504 31.936 16.064 12.912-1.664 23.536-10.976 26.88-23.568 0.192-0.752 19.968-74.752 46.064-115.84 17.536-27.648 35.312-47.184 55.312-60.752-13.536 58.656-23.904 146.912-7.024 237.472 46.336 248.576 241.984 308.048 250.368 310.448 10.784 3.088 22.224 0.32 30.432-7.152 8.192-7.504 11.936-18.752 9.808-29.664-0.32-1.744-32.624-175.776 35.936-324.064 6.224-13.472 14.912-29.12 24.256-44.784 2.656 21.504 6.784 44.368 13.12 66.56 25.152 87.968 90.192 118 92.944 119.216 10.848 4.944 23.504 3.312 32.88-4.032 9.344-7.376 13.84-19.28 11.68-31.008-0.336-2.16-9.408-62.032 41.536-146.944 46-76.672 59.28-126.368 59.28-221.68 0-230.48-176.432-397.76-419.536-397.76zM195.696 492.32c-17.568-44.304-35.664-103.248-35.664-157.808 0-193.408 144.192-333.776 348.368-333.776 206 0 355.536 140.368 355.536 333.776 0 83.536-10.32 122.32-50.16 188.752-26.624 44.368-39.776 84.256-46.064 116-6.336-10.256-12.224-22.784-16.528-37.872-19.504-68.192-14.592-147.936-14.528-148.752 0.944-14.272-7.744-27.472-21.248-32.256s-28.528-0.064-36.816 11.664c-2.4 3.408-59.312 83.968-84.4 138.24-52.096 112.592-51.216 234.336-45.904 304.464-52.72-30.72-133.664-99.344-159.664-238.912-25.312-135.808 23.872-271.6 24.4-272.944 4.256-11.088 2-23.664-5.808-32.592-7.84-8.88-19.904-12.816-31.536-10.032-3.968 0.976-94.032 24.4-152.336 116.288-10.416 16.464-19.76 36.384-27.648 55.76z" />
<glyph unicode="&#xe01d;" glyph-name="eyeglasses" d="M1025.376 308.208c-0.976 13.84-53.008 319.312-61.152 368.224-0.784 4.688-1.408 9.68-2.096 14.944-6.288 49.152-18.032 140.624-165.472 140.624-17.68 0-32-14.32-32-32s14.32-32 32-32c91.12 0 95.936-37.408 102-84.784 0.784-6.064 1.536-11.872 2.432-17.28 3.744-22.528 20.704-112.16 35.344-201.024-37.552 28.624-84.288 45.808-135.12 45.808-81.648 0-154.32-43.952-194.272-109.36-19.216 7.264-51.824 16.336-95.392 16.336-42.944 0-74.512-9.136-94.032-17.088-38.848 65.824-110.304 110.128-192.272 110.128-53.264 0-102.736-18.72-141.84-49.84 14.832 89.984 32.4 182.032 36.208 205.024 0.912 5.408 1.664 11.216 2.432 17.28 6.064 47.376 10.88 84.784 102 84.784 17.68 0 32 14.32 32 32s-14.32 32-32 32c-147.44 0-159.184-91.472-165.472-140.624-0.688-5.248-1.312-10.256-2.096-14.944-8.16-48.912-57.008-352.368-57.968-366.224-0.224-3.088 0.144-6.048 0.752-8.944-0.304-4.624-0.72-9.216-0.72-13.904 0-123.344 103.344-223.344 226.688-223.344s223.344 100 223.344 223.344c0 18.656-2.544 36.672-6.848 53.984 13.12 5.28 36.832 12.336 69.808 12.336 32.176 0 56.464-6.432 70.304-11.328-4.608-17.632-7.328-35.968-7.328-54.992 0-123.344 103.344-223.344 226.688-223.344s223.344 100 223.344 223.344c0 3.344-0.352 6.608-0.496 9.92 0.976 3.488 1.52 7.136 1.232 10.944zM225.344 128.016c-88.192 0-162.688 72.976-162.688 159.344s74.496 159.344 162.688 159.344c87.872 0 159.344-71.472 159.344-159.344s-71.472-159.344-159.344-159.344zM801.312 128.016c-88.192 0-162.688 72.976-162.688 159.344s74.496 159.344 162.688 159.344c76 0 139.632-53.488 155.456-124.784 0.656-6.528 1.2-12.672 1.616-18.288 0.192-2.688 0.912-5.216 1.84-7.664 0.16-2.88 0.432-5.712 0.432-8.624 0-87.856-71.472-159.328-159.344-159.328z" />
<glyph unicode="&#xe01e;" glyph-name="envelope-open" d="M1023.312 486.704c-1.36 11.312-5.616 21.712-12.096 30.464h0.16l-0.88 0.88c-3.28 4.32-7.12 8.128-11.408 11.504l-417.28 403.408c-36.224 36.224-99.504 36.288-135.776 0l-417.216-400.256c-9.024-8.4-28.88-31.088-28.88-53.344v-479.52c0-35.184 28.816-64 64-64h896c35.184 0 64 28.816 64 64v478.256c0.224 2.88-0.064 5.76-0.624 8.608zM269.792 233.664l-205.856-189.568v371.184l205.856-181.616zM335.568 207.28c2.288 1.52 4.464 3.248 6.368 5.408 0.368 0.416 0.624 0.912 0.96 1.344l141.168 130c7.248 5.84 15.84 8.912 24.88 8.912 9.184 0 18.368-3.216 24.528-8l383.6-345.104h-806.736l225.232 207.44zM757.456 229.44l202.48 179.696v-361.84l-202.48 182.144zM103.776 517.168l387.504 370.544c6.064 6.032 14.096 9.376 22.624 9.376 8.56 0 16.592-3.344 22.656-9.376l361.376-344.352h-0.976l54.896-55.792-242.304-215.040-135.248 121.664c-37.68 29.536-91.776 30.816-131.68-1.376l-125.504-115.584-241.792 213.344 26.992 26.592h1.456z" />
<glyph unicode="&#xe020;" glyph-name="energy" d="M595.344 895.28h0.176M595.344 895.28l-72.208-379.376 261.584-0.88-356.064-514.304 72.208 417.376-261.568 0.912 356.048 476.272M595.392 959.28c-1.728 0-3.456-0.064-5.152-0.192-11.296-0.912-18.784-4.688-27.664-10.656-4.928-3.28-9.44-7.28-13.392-11.936-1.168-1.376-2.272-2.816-3.296-4.288l-358.608-474.608c-14.16-19.408-16.24-45.024-5.36-66.432 10.864-21.408 32.832-34.976 56.912-35.152l184.736-1.344-58.080-342.192c-5.52-29.408 10.16-58.72 37.76-70.528 8.224-3.536 16.864-5.216 25.392-5.216 20.112 0 36.64 9.408 49.040 26.4l359.056 514.304c14.16 19.408 16.224 45.056 5.36 66.432-10.864 21.408-32.832 34.976-56.912 35.152l-184.736 0.32 57.456 300.88c1.2 4.848 1.824 9.872 1.824 15.056 0 34.624-27.568 62.848-62.064 63.968-0.768 0.032-1.52 0.032-2.272 0.032v0z" />
<glyph unicode="&#xe021;" glyph-name="emoticon-smile" d="M781.264 352.848c-16.256 7.28-35.088-0.064-42.256-16.192-0.656-1.424-66.128-144.208-229.44-146.128-1.008 0-2-0.032-3.008-0.032-153.664 0-219.936 140.368-222.688 146.4-7.312 16-26.192 23.12-42.32 15.872-16.096-7.28-23.248-26.208-15.968-42.336 3.408-7.568 85.376-183.936 280.848-183.936 1.28 0 2.592 0.032 3.872 0.032 203.872 2.4 283.84 176.656 287.12 184.064 7.248 16.16-0.032 35.072-16.16 42.256zM512 960c-282.784 0-512-229.216-512-512s229.216-512 512-512 512 229.216 512 512-229.216 512-512 512zM512 0c-247.024 0-448 200.976-448 448s200.976 448 448 448 448-200.976 448-448-200.976-448-448-448zM351.504 480.176c35.264 0 63.84 28.592 63.84 63.824s-28.576 63.824-63.84 63.824c-35.28 0-63.84-28.592-63.84-63.824s28.56-63.824 63.84-63.824zM671.504 480.176c35.264 0 63.84 28.592 63.84 63.824s-28.576 63.824-63.84 63.824c-35.28 0-63.84-28.592-63.84-63.824s28.56-63.824 63.84-63.824z" />
<glyph unicode="&#xe022;" glyph-name="disc" d="M512 960c-282.784 0-512-229.216-512-512s229.216-512 512-512 512 229.216 512 512-229.216 512-512 512zM960 448c0-66.32-14.592-129.264-40.56-185.936l-283.216 151.552c3.024 10.976 4.784 22.464 4.784 34.384 0 71.248-57.744 129.008-129.008 129.008-14.624 0-28.624-2.544-41.712-7.024l-169.616 272.912c62.992 33.84 134.944 53.104 211.328 53.104 247.024 0 448-200.976 448-448zM512 512.992c35.84 0 65.008-29.152 65.008-65.008s-29.168-64.992-65.008-64.992-64.992 29.168-64.992 65.008 29.152 64.992 64.992 64.992zM246.576 808.624l170.176-273.84c-0.752-0.832-1.536-1.648-2.288-2.512l-283.168 151.52c30.208 48.576 69.392 90.976 115.28 124.832zM64 448c0 63.68 13.44 124.256 37.504 179.168l284.368-152.16c-1.856-8.72-2.88-17.728-2.88-27.008 0-71.248 57.744-129.008 129.008-129.008 12.4 0 24.352 1.84 35.696 5.104l170.192-273.792c-61.68-32.048-131.664-50.304-205.888-50.304-247.024 0-448 200.976-448 448zM772.448 83.84l-169.504 272.688c0.496 0.496 0.96 1.024 1.456 1.536l284.288-152.144c-30.752-47.632-70.24-89.088-116.24-122.080z" />
<glyph unicode="&#xe025;" glyph-name="credit-card" d="M928.144 784h-832.288c-53.024 0-96-42.976-96-96v-480c0-53.024 42.976-96 96-96h832.288c53.024 0 96 42.976 96 96v480c0 53.024-42.976 96-96 96zM95.856 720h832.288c17.664 0 32-14.336 32-32v-64h-896.288v64c0 17.664 14.352 32 32 32zM928.144 176h-832.288c-17.664 0-32 14.336-32 32v288h896.288v-288c0-17.664-14.352-32-32-32z" />
<glyph unicode="&#xe026;" glyph-name="chemistry" d="M810.416-10.72l-170.4 201.664v353.504h21.312c17.68 0 32 14.32 32 32s-14.32 32-32 32h-53.312c-17.68 0-32-14.32-32-32v-397.824c0-7.936 2.944-15.568 8.256-21.44l130.368-157.344h-405.28l130.368 157.344c5.312 5.872 8.256 13.504 8.256 21.44v397.824c0 17.68-14.32 32-32 32h-53.312c-17.68 0-32-14.32-32-32s14.32-32 32-32h21.312v-353.504l-170.4-201.664c-8.464-9.376-10.624-22.88-5.504-34.432 5.152-11.568 16.592-19.008 29.248-19.008h549.344c12.656 0 24.096 7.44 29.248 19.008 5.12 11.552 2.976 25.056-5.504 34.432zM480 640.32c35.264 0 63.84 28.592 63.84 63.84 0 35.216-28.576 63.808-63.84 63.808-35.28 0-63.84-28.592-63.84-63.808 0-35.248 28.56-63.84 63.84-63.84zM688.48 735.312c62.368 0 112.928 50.336 112.928 112.416s-50.544 112.416-112.928 112.416c-62.352 0-112.928-50.336-112.928-112.416s50.576-112.416 112.928-112.416zM687.984 896.336c26.656 0 48.336-21.584 48.336-48.128 0-26.528-21.68-48.128-48.336-48.128s-48.336 21.6-48.336 48.128c0.016 26.544 21.68 48.128 48.336 48.128z" />
<glyph unicode="&#xe027;" glyph-name="bell" d="M905.616 248.112c-37.344 45.424-88.48 109.744-88.48 175.36v208.96c0 180.016-134.64 326.48-306.688 326.48-172.080 0-305.664-146.464-305.664-326.48v-208.96c0-64.512-55.488-125.488-90.672-172.8-31.648-42.512-56.624-76.096-39.76-109.664 14.832-29.536 51.968-33.328 82.656-33.328h183.36c0.048-94.208 76.448-170.576 170.672-170.576 94.24 0 170.64 76.368 170.688 170.576h187.664c19.52 0 65.152 0 80.864 33.2 15.856 33.616-9.52 64.512-44.64 107.232zM511.008 4.144c-57.216 0-103.632 46.352-103.712 103.536h207.424c-0.080-57.184-46.464-103.536-103.712-103.536zM869.392 175.808h-712.384c-4.896 0-8.992 0.16-12.368 0.368 6.592 10.208 16.272 23.248 24.144 33.856 38.992 52.4 104.144 126.368 104.144 213.424v208.96c0 142.464 103.040 258.352 237.52 258.352s238.56-115.888 238.56-258.352v-208.96c0-90.016 60.080-165.248 103.968-218.608 7.392-8.992 16.24-19.76 23.12-28.96-2.032-0.048-4.272-0.080-6.704-0.080z" />
<glyph unicode="&#xe028;" glyph-name="badge" d="M1021.056 120.032l-187.264 346.304c19.104 43.36 29.792 91.28 29.792 141.696 0 194.304-157.52 351.808-351.808 351.808-194.336 0-351.84-157.52-351.84-351.808 0-51.632 11.216-100.624 31.184-144.784l-188.096-343.056c-6.064-11.024-5.056-24.624 2.528-34.688 7.6-10.032 20.432-14.752 32.688-11.872l160.624 36.848 54.976-153.12c4.288-11.904 15.152-20.16 27.744-21.088 0.816-0.064 1.6-0.096 2.368-0.096 11.712 0 22.592 6.432 28.192 16.88l163.696 304.976c11.808-1.2 23.792-1.808 35.92-1.808 11.12 0 22.096 0.576 32.944 1.6l167.248-305.008c5.664-10.32 16.432-16.624 28.064-16.624 0.816 0 1.664 0.032 2.496 0.096 12.56 1.008 23.376 9.248 27.632 21.088l54.976 153.12 160.624-36.848c12.32-2.976 25.024 1.808 32.624 11.808 7.632 9.984 8.656 23.52 2.688 34.576zM289.776 46.656l-40.256 112.16c-5.504 15.248-21.472 24.128-37.28 20.368l-118.8-27.248 135.408 246.976c44.592-60.24 107.952-105.68 181.44-127.792l-120.512-224.464zM224.224 608.032c0 158.544 129.008 287.536 287.568 287.536 158.544 0 287.536-128.992 287.536-287.536s-128.992-287.568-287.536-287.568c-158.576 0-287.568 129.024-287.568 287.568zM811.744 179.184c-15.872 3.744-31.776-5.12-37.28-20.368l-40.528-112.976-123.152 224.56c75.44 22.096 140.336 68.736 185.504 130.736l134.848-249.328-119.392 27.376z" />
<glyph unicode="&#xe02a;" glyph-name="wallet" d="M1023.648 669.52c0.464 23.664-5.904 78.848-77.84 98.064l-722.416 144.624c-52.944 0-96-43.056-96-96v-128.704l-32 0.080c-52.752-0.224-95.632-43.152-95.632-95.968v-511.808c0-52.944 43.056-96 96-96h832.464c52.944 0 96 43.056 96 96l-0.576 589.712zM191.392 816.208c0 16.72 12.88 30.464 29.216 31.872l706-142.88c0.256-0.128-5.248-17.936-30.88-17.6h-704.336v128.608zM960.24 79.792c0-17.664-14.336-32-32-32h-832.48c-17.664 0-32 14.336-32 32v511.824c0 17.664 14.336 32 32 32h800.064c31.408 0 64.4 10.704 64.4 31.888v-575.712zM191.824 399.504c-35.344 0-64-28.656-64-64s28.656-64 64-64 64 28.656 64 64-28.656 64-64 64z" />
<glyph unicode="&#xe02b;" glyph-name="vector" d="M992 288h-32.272v1.616c0 161.92-86.528 303.808-215.664 382.384h160.816c11.088-19.040 31.504-32 55.12-32 35.344 0 64 28.656 64 64s-28.656 64-64 64c-23.632 0-44.032-12.96-55.12-32h-296.88v32c0 17.664-14.336 32-32 32h-128c-17.664 0-32-14.336-32-32v-32h-296.88c-11.088 19.040-31.488 32-55.12 32-35.344 0-64-28.656-64-64s28.656-64 64-64c23.632 0 44.032 12.96 55.12 32h160.8c-129.136-78.592-215.648-220.464-215.648-382.384v-1.616h-32.272c-17.664 0-32-14.336-32-32v-128c0-17.664 14.336-32 32-32h128c17.664 0 32 14.336 32 32v128c0 17.664-14.336 32-32 32h-31.728v1.616c0 178.448 122.464 328.672 287.728 371.392v-21.008c0-17.664 14.336-32 32-32h128c17.664 0 32 14.336 32 32v21.008c165.264-42.736 287.728-192.96 287.728-371.392v-1.616h-31.728c-17.664 0-32-14.336-32-32v-128c0-17.664 14.336-32 32-32h128c17.664 0 32 14.336 32 32v128c0 17.664-14.336 32-32 32zM128 160h-64v64h64v-64zM544 672h-64v64h64v-64zM960 160h-64v64h64v-64z" />
<glyph unicode="&#xe02c;" glyph-name="speech" d="M960 896.4h-896c-35.344 0-64-28.656-64-64v-577.504c0-35.344 28.656-64 64-64h127.536v-159.312c0-12.912 7.744-24.528 19.632-29.504 4-1.68 8.224-2.496 12.368-2.496 8.256 0 16.336 3.184 22.432 9.184l185.024 182.128h529.008c35.344 0 64 28.656 64 64v577.504c0 35.344-28.656 64-64 64zM960 254.912h-555.216l-149.248-146.912v146.912h-191.536v577.488h896v-577.488zM224 510.992h576c17.664 0 32 14.336 32 32s-14.336 32-32 32h-576c-17.664 0-32-14.336-32-32s14.336-32 32-32zM224 638.992h576c17.664 0 32 14.336 32 32s-14.336 32-32 32h-576c-17.664 0-32-14.336-32-32s14.336-32 32-32zM224 382.992h384c17.664 0 32 14.336 32 32s-14.336 32-32 32h-384c-17.664 0-32-14.336-32-32s14.336-32 32-32z" />
<glyph unicode="&#xe02d;" glyph-name="puzzle" d="M512-64.16c-20.288 0-39.376 7.872-53.744 22.192l-436.512 436.496c-29.536 29.68-29.536 77.952-0.064 107.568l159.904 159.872c9.872 9.872 25.024 12.224 37.44 5.744 12.368-6.464 19.12-20.224 16.688-33.968-1.632-9.152-2.368-16.496-2.368-23.12 0-70 56.976-128.144 127.008-128.144 70.096 0 121.28 58.144 121.28 128.144 0 70.096-51.184 127.088-121.28 127.088-6.56 0-13.872-0.752-23.024-2.368-13.872-2.56-27.504 4.32-33.968 16.688-6.464 12.4-4.128 27.568 5.744 37.44l149.088 149.12c28.88 28.752 78.816 28.688 107.568 0.064l109.152-109.216c22.784 70.816 89.28 122.224 167.536 122.224 97.024 0 175.968-78.976 175.968-176.032 0-78.256-51.376-144.752-122.224-167.504l106.032-105.968c29.6-29.68 29.6-77.952 0.032-107.6l-436.448-436.464c-14.432-14.384-33.52-22.256-53.808-22.256zM174.896 564.784l-107.904-107.872c-4.656-4.688-4.656-12.432 0.064-17.184l436.368-436.384c6.128-6.064 10.944-6.128 17.184 0.064l436.352 436.384c4.688 4.72 4.688 12.4-0.032 17.152l-153.904 153.808c-9.632 9.632-12.128 24.32-6.192 36.56s18.848 19.504 32.528 17.84l4.88-0.624c2.688-0.368 5.376-0.816 8.192-0.816 61.744 0 111.968 50.192 111.968 111.904 0 61.776-50.224 112.032-111.968 112.032-61.712 0-111.936-50.256-111.936-112.032 0-2.56 0.4-5.056 0.752-7.568l0.688-5.712c1.44-13.504-5.776-26.432-18.032-32.288-12.16-5.808-26.816-3.312-36.4 6.256l-156.944 157.024c-6.128 6.064-10.944 6.128-17.184-0.064l-97.12-97.12c83.28-20.624 139.376-95.968 139.376-185.536 0-105.312-79.92-192.128-185.296-192.128-89.536 0.016-164.848 63.088-185.44 146.304z" />
<glyph unicode="&#xe031;" glyph-name="pin" d="M1014.848 580.336l-368.16 370.016c-7.936 7.968-19.376 11.216-30.32 8.496-10.912-2.656-19.6-10.848-22.944-21.568-22.16-71.312-24.72-135.84-7.792-194.688-1.552-1.072-3.040-2.24-4.416-3.616l-171.104-171.072c-55.2 25.6-114.544 39.456-173.696 39.456-37.6 0-74.464-5.568-109.568-16.464-10.688-3.344-18.88-12-21.568-22.848-2.688-10.88 0.464-22.336 8.368-30.288l218.976-220.384-306.16-311.040-26.624-70.128 64.368 24.88 313.36 311.040 221.824-223.264c6.064-6.128 14.288-9.44 22.688-9.44 2.528 0 5.088 0.32 7.632 0.912 10.912 2.688 19.6 10.88 22.944 21.6 28.976 93.232 20.48 193.344-20.336 283.12l174.704 174.736c0.624 0.624 1.056 1.328 1.632 2 26.368-7.536 53.696-11.568 82.048-11.568 35.216 0 72.56 5.056 110.976 17.008 10.688 3.312 18.88 12 21.568 22.848 2.656 10.848-0.496 22.304-8.4 30.256zM603.152 135.856l-402.784 405.408c103.376 12.064 214.848-29.6 295.568-110.32 80.32-80.304 119.504-191.296 107.216-295.088zM600.224 403.456c-16.832 25.728-36.464 50.176-59.024 72.752-22.464 22.464-47.008 42.256-72.96 59.328l144.128 144.096c14.704-25.568 33.664-50 57.008-73.328 23.856-23.84 49.088-43.136 75.6-58.064l-144.752-144.784zM714.624 651.552c-61.536 61.536-85.248 130.128-72.688 212.88l286.912-288.4c-82.656-11.856-151.6 12.896-214.224 75.52z" />
<glyph unicode="&#xe032;" glyph-name="picture" d="M960 880.096h-896c-35.184 0-64-28.816-64-64v-736.192c0-35.184 28.816-64 64-64h896c35.184 0 64 28.816 64 64v736.192c0 35.184-28.816 64-64 64zM960 79.904h-896v188.56l256.848 248.912 264.784-264.496c10.912-13.248 30.336-11.568 44.128-1.12l116.88 105.808 210.8-216.384c0.8-0.8 1.696-1.392 2.56-2.080v-59.2zM960 230.208l-188.032 192.416c-11.408 11.248-29.28 12.4-41.936 2.752l-120.56-105.024-264.944 262.080c-5.664 6.848-13.84 11.024-22.688 11.6-8.816 0.32-17.504-2.56-23.968-8.624l-233.872-227.6v458.288h896v-585.888zM736 559.872c35.28 0 63.84 28.608 63.84 63.84 0 35.216-28.56 63.824-63.84 63.824s-63.84-28.608-63.84-63.824c0-35.232 28.56-63.84 63.84-63.84z" />
<glyph unicode="&#xe033;" glyph-name="map" d="M993.184 824.992l-320.96 133.072-319.44-126.432-321.968 126.368c-2.752 0.816-5.44 1.12-7.968 1.12-13.136 0.064-22.848-9.744-22.848-24.496v-830c0-17.568 13.872-35.872 30.816-40.56l322.336-127.184 319.008 129.504 321.024-126.128c2.752-0.752 5.44-1.12 7.968-1.12 13.12 0 22.848 9.744 22.848 24.496v820.736c0 17.568-13.872 35.888-30.816 40.624zM384 778.864l256 100.304v-761.504l-256-101.184v762.384zM64 873.312l256-94.576v-761.76l-256 104.272v752.064zM960 22l-256 96.384v759.824l256-110.384v-745.824z" />
<glyph unicode="&#xe034;" glyph-name="layers" d="M21.84 658.192l475.088-258.72c4.784-2.592 10.032-3.904 15.312-3.904 5.216 0 10.432 1.28 15.184 3.84l480.096 258.72c10.464 5.632 16.976 16.624 16.816 28.528-0.16 11.936-6.912 22.752-17.504 28.16l-475.12 241.28c-9.056 4.592-19.744 4.624-28.88 0.064l-480.048-241.28c-10.624-5.344-17.44-16.16-17.632-28.064s6.256-22.944 16.688-28.624zM517.152 891.712l406.16-206.272-410.976-221.472-406.176 221.184 410.992 206.56zM1001.344 479.68l-94.976 48.224-68.56-36.976 80-40.624-410.96-221.456-406.192 221.184 85.312 42.88-68.368 37.248-100.32-50.4c-10.624-5.344-17.44-16.16-17.632-28.064s6.256-22.944 16.688-28.624l475.088-258.72c4.784-2.592 10.032-3.904 15.312-3.904 5.216 0 10.432 1.28 15.184 3.84l480.096 258.72c10.464 5.632 16.976 16.624 16.816 28.528-0.144 11.936-6.896 22.752-17.488 28.144zM1001.344 255.68l-89.968 44.224-68.56-36.976 75.008-36.624-410.976-221.456-406.192 221.184 79.312 35.872-68.368 37.248-94.32-43.408c-10.624-5.344-17.44-16.16-17.632-28.064s6.256-22.944 16.688-28.624l475.088-258.72c4.784-2.592 10.032-3.904 15.312-3.904 5.216 0 10.432 1.28 15.184 3.84l480.096 258.72c10.464 5.632 16.976 16.624 16.816 28.528-0.144 11.952-6.896 22.768-17.488 28.16z" />
<glyph unicode="&#xe035;" glyph-name="handbag" d="M1022.736 17.36l-83.408 503.776c-7.44 65.312-66.976 118.432-132.72 118.432h-70.656v85.28c0 130.16-92.848 236.032-222.976 236.032-130.096 0-224.944-105.872-224.944-236.032v-85.28h-76.672c-65.744 0-125.28-53.12-132.528-117.056l-77.28-504.16c-2.976-26.56 2.224-47.504 15.408-62.288 12.432-13.904 30.528-20.976 53.744-20.976h873.568c32.912 0 51.776 13.216 61.84 24.32 9.216 10.208 19.648 28.144 16.624 57.952zM352.048 724.864c0 94.848 66.128 172.032 160.944 172.032s158.976-77.184 158.976-172.032v-85.28h-319.92v85.28zM947.168-0.448l-872.496-0.448c-5.504 0-11.008 2.944-9.712 10.688l77.248 504.096c3.84 33.44 35.504 61.68 69.152 61.68h76.688v-72.928c-19.072-11.072-32.048-31.488-32.048-55.136 0-35.344 28.656-64 64-64s64 28.656 64 64c0 23.616-12.928 44-31.952 55.088v72.992h319.904v-72.992c-19.008-11.088-31.952-31.488-31.952-55.088 0-35.344 28.656-64 64-64s64 28.656 64 64c0 23.648-12.976 44.064-32.048 55.152v72.928h70.656c33.664 0 65.312-28.256 69.408-63.44l83.344-503.28c0.4-4.096-2.816-9.312-12.192-9.312z" />
<glyph unicode="&#xe036;" glyph-name="globe-alt" d="M929.504 545.584c0 168.784-88.976 321.872-237.968 409.568-15.248 9.008-34.88 3.872-43.808-11.376-8.944-15.216-3.872-34.848 11.376-43.808 129.248-76.032 206.4-208.528 206.4-354.368 0-242.368-175.936-418.288-418.32-418.288-54.192 0-106.784 10.16-156.32 30.16-16.368 6.656-35.056-1.28-41.664-17.664-6.624-16.4 1.28-35.056 17.664-41.664 57.216-23.12 117.872-34.848 180.32-34.848 0.192 0 0.384 0.016 0.576 0.016v-63.008h-92.928c-18.464 0-33.44-14.304-33.44-31.952s14.976-31.936 33.44-31.936h252.848c18.464 0 33.44 14.304 33.44 31.936 0 17.664-14.976 31.952-33.44 31.952h-96.384v66.8c245.808 28.56 418.208 220.912 418.208 478.48zM799.376 542.704c0 194.656-157.744 353.408-352.4 353.408-194.688 0-352.464-158.752-352.464-353.408s157.776-351.44 352.464-351.44c194.656 0 352.4 156.784 352.4 351.44zM158.496 542.704c0 159.024 129.408 289.408 288.464 289.408 159.024 0 288.4-130.368 288.4-289.408s-129.376-287.44-288.4-287.44c-159.056 0-288.464 128.4-288.464 287.44z" />
<glyph unicode="&#xe037;" glyph-name="globe" d="M1025.024 448c0 272.016-213.664 495.104-482.32 511.024-5.536 0.608-11.088 1.008-16.72 1.008-1.664 0-3.328-0.176-4.992-0.224-2.992 0.048-5.968 0.224-8.992 0.224-282.88 0-513.024-229.696-513.024-512.032s230.144-512.032 513.024-512.032c3.024 0 6 0.176 9.008 0.24 1.664-0.064 3.328-0.24 4.992-0.24 5.632 0 11.184 0.4 16.72 1.008 268.64 15.92 482.304 238.976 482.304 511.024zM929.568 283.168c-17.632 5.12-61.92 16.24-140.064 25.392 6.464 44.192 10 90.896 10 139.44 0 38.256-2.208 75.344-6.288 111.008 99.008 11.824 142.384 26.72 145.296 27.744l-11.92 33.584c22.24-53.088 34.56-111.296 34.56-172.336 0-58.192-11.28-113.76-31.584-164.832zM285.488 448c0 35.808 2.368 70.768 6.704 104.4 51.888-4.080 113.936-7.088 186.864-7.792v-222.064c-70.992-0.688-131.664-3.568-182.688-7.472-7.040 42.192-10.88 86.88-10.88 132.928zM542.944 891.776c78.464-22.736 145.648-131.696 175.744-276.112-48.368-3.856-106.624-6.672-175.744-7.328v283.44zM479.056 890.992v-282.624c-68.368 0.688-126.88 3.472-176.064 7.232 30.704 142.608 98.432 250.752 176.064 275.392zM479.056 258.768v-253.744c-72.4 22.976-136.192 118.576-169.36 247.024 47.76 3.504 104.096 6.064 169.36 6.72zM542.944 4.224v254.56c65.952-0.624 122.064-3.28 169.216-6.928-32.608-130.128-96-226.416-169.216-247.632zM542.944 322.544v222.032c73.312 0.688 134.992 3.776 186.192 8 4.208-33.696 6.496-68.704 6.496-104.592 0-46.128-3.712-90.864-10.528-133.12-50.416 4.080-110.8 7.008-182.16 7.68zM914.8 646.064c-9.664-3.008-50.064-14.48-131.024-24.032-18.048 95.952-50.672 177.968-93.12 237.168 97.536-42.384 177.136-118.304 224.144-213.136zM358.816 869.408c-52.208-59.952-94.832-146.16-118.096-248.112-72.48 7.856-115.92 17.088-133.312 21.28 50.72 104.64 141.040 186.752 251.408 226.832zM83.632 582.816c12.32-3.344 58.912-14.944 145.552-24.528-4.96-35.44-7.68-72.304-7.68-110.304 0-48.272 4.368-94.72 12.24-138.688-74.4-8.032-120.16-17.648-140.688-22.608-19.44 50.096-30.208 104.448-30.208 161.312 0 46.96 7.312 92.256 20.784 134.816zM121.088 227.648c23.264 4.944 64.912 12.464 126.592 18.928 24.288-89.712 63.792-165.616 111.136-219.968-101.12 36.72-185.296 108.752-237.728 201.040zM690.656 36.816c38.224 53.264 68.48 125.024 87.296 208.8 63.408-7.28 103.216-15.792 123.296-20.864-48.016-83.072-121.856-149.392-210.592-187.936z" />
<glyph unicode="&#xe038;" glyph-name="frame" d="M224 848h-192c-17.664 0-32-14.336-32-32v-192c0-17.664 14.336-32 32-32s32 14.336 32 32v160h160c17.664 0 32 14.336 32 32s-14.336 32-32 32zM992 304c-17.664 0-32-14.336-32-32v-160h-160c-17.664 0-32-14.336-32-32s14.336-32 32-32h192c17.664 0 32 14.336 32 32v192c0 17.664-14.336 32-32 32zM224 112h-160v160c0 17.664-14.336 32-32 32s-32-14.336-32-32v-192c0-17.664 14.336-32 32-32h192c17.664 0 32 14.336 32 32s-14.336 32-32 32zM992 848h-192c-17.664 0-32-14.336-32-32s14.336-32 32-32h160v-160c0-17.664 14.336-32 32-32s32 14.336 32 32v192c0 17.664-14.336 32-32 32z" />
<glyph unicode="&#xe039;" glyph-name="folder-alt" d="M960.16 752h-480l-96 96h-320c-35.344 0-64-28.656-64-64v-160h-0.304v-64h0.304v-448c0-35.344 28.656-64 64-64h896c35.344 0 64 28.656 64 64v576c0 35.344-28.656 64-64 64zM64.144 784h290.752l78.624-77.248 20.112-18.752h506.528v-64h-896v160zM64.144 112v448h896v-448h-896z" />
<glyph unicode="&#xe03a;" glyph-name="film" d="M800 687.712h64c17.664 0 32 14.336 32 32v32c0 17.664-14.336 32-32 32h-64c-17.664 0-32-14.336-32-32v-32c0-17.664 14.336-32 32-32zM800 495.712h64c17.664 0 32 14.336 32 32v32c0 17.664-14.336 32-32 32h-64c-17.664 0-32-14.336-32-32v-32c0-17.664 14.336-32 32-32zM800 303.712h64c17.664 0 32 14.336 32 32v32c0 17.664-14.336 32-32 32h-64c-17.664 0-32-14.336-32-32v-32c0-17.664 14.336-32 32-32zM800 111.712h64c17.664 0 32 14.336 32 32v32c0 17.664-14.336 32-32 32h-64c-17.664 0-32-14.336-32-32v-32c0-17.664 14.336-32 32-32zM160 687.712h64c17.664 0 32 14.336 32 32v32c0 17.664-14.336 32-32 32h-64c-17.664 0-32-14.336-32-32v-32c0-17.664 14.336-32 32-32zM160 495.712h64c17.664 0 32 14.336 32 32v32c0 17.664-14.336 32-32 32h-64c-17.664 0-32-14.336-32-32v-32c0-17.664 14.336-32 32-32zM160 303.712h64c17.664 0 32 14.336 32 32v32c0 17.664-14.336 32-32 32h-64c-17.664 0-32-14.336-32-32v-32c0-17.664 14.336-32 32-32zM160 111.712h64c17.664 0 32 14.336 32 32v32c0 17.664-14.336 32-32 32h-64c-17.664 0-32-14.336-32-32v-32c0-17.664 14.336-32 32-32zM960 944.096h-896c-35.184 0-64-28.816-64-64v-864.192c0-35.184 28.816-64 64-64h896c35.184 0 64 28.816 64 64v864.192c0 35.184-28.816 64-64 64zM960 15.904h-896v864.192h896v-864.192z" />
<glyph unicode="&#xe03b;" glyph-name="feed" d="M101.872 629.744c-18.128 0-32.768-14.656-32.768-32.768 0-18.096 14.64-32.768 32.768-32.768 303.008 0 525.344-224.368 525.344-527.36 0-18.096 14.656-32.752 32.768-32.752s32.768 14.656 32.768 32.752c0 340.368-250.528 592.896-590.88 592.896zM102.16 957.376c-18.112 0-32.768-14.656-32.768-32.768s14.656-32.768 32.768-32.768c470.176 0 852.672-382.496 852.672-852.656 0-18.096 14.656-32.752 32.768-32.752s32.768 14.656 32.768 32.752c-0.016 506.288-411.92 918.192-918.208 918.192zM184.016 300.4c-99.472 0-180.368-81.12-180.368-180.88 0-99.712 80.912-180.912 180.368-180.912s180.4 81.184 180.4 180.912c0 99.76-80.928 180.88-180.4 180.88zM184.016 1.968c-64.608 0-117.168 52.752-117.168 117.568s52.56 117.536 117.168 117.536c64.624 0 117.216-52.72 117.216-117.536s-52.592-117.568-117.216-117.568z" />
<glyph unicode="&#xe03c;" glyph-name="earphones-alt" d="M1023.84 387.456c0.096 21.056-3.216 100.496-5.744 123.216-29.12 260.752-240.752 450-503.184 450-273.344 0-494.816-210.624-509.84-489.904-0.32-6.096-2.56-49.344-2.72-75.088l-0.080-14.32c-1.312-5.92-2.112-12.032-2.112-18.336v-214.656c0-46.88 38.128-85.008 85.008-85.008h86.288c46.88 0 85.024 38.128 85.024 85.008v214.64c0 46.88-38.16 85.008-85.024 85.008h-86.304c-5.888 0-11.632-0.608-17.184-1.744 0.48 10.384 0.912 18.576 1.024 21.056 13.168 244.784 207.136 429.344 445.92 429.344 229.28 0 414.128-165.344 439.568-393.12 1.072-9.504 2.448-33.664 3.552-57.92-6.192 1.44-12.576 2.384-19.2 2.384h-85.28c-46.88 0-85.008-38.128-85.008-85.008v-213.664c0-32.368 18.4-60.256 45.088-74.592l-205.44-80.656v5.216c0 17.664-14.336 32-32 32h-96c-17.664 0-32-14.336-32-32v-32c0-17.664 14.336-32 32-32h96c0.272 0 0.512 0.080 0.784 0.080l57.36 0.224 329.552 129.376c4.32 1.792 7.984 4.464 10.992 7.664 28.848 13.616 48.992 42.736 48.992 76.688v213.664c0 5.216-0.64 10.288-1.552 15.232 0.88 2.944 1.504 6 1.52 9.216zM85.152 384.016h86.288c11.6 0 21.024-9.408 21.024-21.008v-214.656c0-11.6-9.44-21.008-21.024-21.008h-86.288c-11.6 0-21.008 9.408-21.008 21.008v214.656c0.016 11.6 9.424 21.008 21.008 21.008zM832.528 363.008c0 11.6 9.408 21.008 21.008 21.008h85.28c11.6 0 21.024-9.408 21.024-21.008v-213.664c0-11.6-9.44-21.008-21.024-21.008h-85.28c-11.6 0-21.008 9.408-21.008 21.008v213.664z" />
<glyph unicode="&#xe03d;" glyph-name="earphones" d="M1023.84 355.44c0.096 21.056-3.216 100.496-5.744 123.216-29.12 260.752-240.752 450-503.184 450-273.344 0-494.816-210.624-509.84-489.904-0.32-6.096-2.56-49.344-2.72-75.088l-0.080-14.32c-1.312-5.92-2.112-12.032-2.112-18.336v-278.656c0-46.88 38.128-85.008 85.008-85.008h86.288c46.88 0 85.024 38.128 85.024 85.008v278.64c0 46.88-38.16 85.008-85.024 85.008h-86.32c-5.888 0-11.632-0.608-17.184-1.744 0.48 10.384 0.912 18.592 1.024 21.056 13.184 244.784 207.136 429.344 445.936 429.344 229.28 0 414.128-165.344 439.568-393.12 1.088-9.504 2.464-33.664 3.568-57.92-6.24 1.44-12.608 2.384-19.232 2.384h-85.28c-46.88 0-85.008-38.128-85.008-85.008v-277.664c0-46.896 38.128-85.008 85.008-85.008h85.28c46.88 0 85.024 38.128 85.024 85.008v277.664c0 5.216-0.64 10.288-1.568 15.216 0.928 2.944 1.536 6.016 1.568 9.232zM85.136 352h86.288c11.6 0 21.024-9.408 21.024-21.008v-278.656c0-11.616-9.44-21.008-21.024-21.008h-86.288c-11.6 0-21.008 9.408-21.008 21.008v278.656c0.032 11.6 9.44 21.008 21.008 21.008zM959.84 53.344c0-11.6-9.44-21.008-21.024-21.008h-85.28c-11.6 0-21.008 9.408-21.008 21.008v277.648c0 11.6 9.408 21.008 21.008 21.008h85.28c11.6 0 21.024-9.408 21.024-21.008v-277.648z" />
<glyph unicode="&#xe03e;" glyph-name="drop" d="M510.4-62.704c-193.312 0-350.592 155.12-350.592 345.776 0 222.688 311.632 644.848 324.912 662.72 6 8.064 15.408 12.848 25.472 12.912 11.184 0.096 19.568-4.592 25.664-12.56 13.408-17.536 328.336-432.224 328.336-663.056 0-190.672-158.72-345.792-353.792-345.792zM510.752 872.304c-74.4-105.664-286.944-422.064-286.944-589.216 0-155.376 128.56-281.776 286.592-281.776 159.776 0 289.776 126.4 289.776 281.776 0.016 173.36-214.144 485.024-289.424 589.216z" />
<glyph unicode="&#xe03f;" glyph-name="drawer" d="M1022.976 450.016l-117.504 407.088c-3.84 13.872-16.464 23.472-30.848 23.472h-735.344c-14.496 0-27.184-9.744-30.944-23.776l-107.392-386.352c-1.984-7.504-1.008-15.008 2-21.536-1.728-5.792-2.944-11.824-2.944-18.176v-351.312c0-35.344 28.656-64 64-64h896c35.344 0 64 28.656 64 64v351.312c0 1.712-0.368 3.328-0.496 5.008 0.832 4.592 0.816 9.44-0.528 14.272zM163.904 816.576h686.368l93.12-321.84h-298.336c-1.44-76.816-55.904-129.68-133.056-129.68s-130.624 52.88-132.064 129.68h-305.776l89.744 321.84zM960 79.424h-896v351.312h263.12c27.936-80.432 95.776-129.68 184.88-129.68s157.936 49.248 185.872 129.68h262.128v-351.312z" />
<glyph unicode="&#xe040;" glyph-name="docs" d="M768 960h-352c-35.344 0-64-28.656-64-64h352v-256h256v-512h-224v-64h224c35.344 0 64 28.656 64 64v575.984l-256 256.016zM768 704v165.504l165.472-165.504h-165.472zM64 832c-35.344 0-64-28.656-64-64v-768c0-35.344 28.656-64 64-64h544c35.344 0 64 28.656 64 64v575.984l-256 256.016h-352zM608 0h-544v768h288v-256h256v-512zM416 576v165.504l165.472-165.504h-165.472z" />
<glyph unicode="&#xe041;" glyph-name="directions" d="M1017.056 773.936l-99.696 111.344c-6.064 6.848-14.784 10.752-23.936 10.752h-350.256v33.968c0 16.56-14.336 30-32 30s-32-13.44-32-30v-33.968h-255.808c-17.68 0-32-14.32-32-32v-223.664c0-17.68 14.32-32 32-32h255.808v-64.096h-348.592c-9.152 0-17.872-3.904-23.936-10.752l-99.68-113.312c-10.752-12.128-10.752-30.368 0-42.496l99.68-112.288c6.112-6.848 14.784-9.744 23.936-9.744h348.592v-289.68c0-16.56 14.336-30 32-30s32 13.44 32 30v289.68h256.464c17.68 0 32 14.32 32 32v224.608c0 17.68-14.32 32-32 32h-256.464v64.096h350.256c9.152 0 17.872 3.904 23.936 10.752l99.696 112.32c10.736 12.112 10.736 30.352 0 42.48zM767.648 319.68h-622.688l-71.28 79.28 71.28 81.312h622.688v-160.592zM879.040 672.368h-623.68v159.664h623.68l71.28-79.344-71.28-80.32z" />
<glyph unicode="&#xe042;" glyph-name="direction" d="M966.912 661.84l-179.12 192c-6.080 6.48-14.544 10.16-23.424 10.16h-267.12l-1.008 66c0 16.56-14.336 30-32 30s-30-13.44-30-30l-0.976-66h-352.768c-17.68 0-32-14.32-32-32v-384c0-17.68 14.32-32 32-32h352.336v-450c0-16.56 14.336-30 32-30s32 13.44 32 30v450h267.536c8.88 0 17.344 3.68 23.408 10.16l179.12 192c11.472 12.304 11.472 31.376 0.016 43.68zM750.464 480h-637.968v320h637.968l149.28-160-149.28-160z" />
<glyph unicode="&#xe043;" glyph-name="diamond" d="M1018.72 664.528l-139.872 267.44c-8.16 15.6-29.264 28.352-46.848 28.352h-321.936c-0.352 0.016-0.704 0.112-1.056 0.128-0.288 0-0.56-0.112-0.848-0.128h-316.16c-17.6 0-38.752-12.72-47.024-28.256l-139.504-262.288c-8.288-15.536-6.624-39.936 3.632-54.256l480.016-669.152c5.152-7.184 12-10.816 18.832-10.816 6.784 0 13.584 3.536 18.768 10.592l487.904 664.256c10.384 14.192 12.256 38.544 4.096 54.128zM942.368 672.368h-171.456l68.656 196.608 102.8-196.608zM575.344 896.32h205.968l-63.888-182.928-142.080 182.928zM668.24 672.368h-297.648l140.672 202.096 156.976-202.096zM313.888 702.912l-64.176 193.408h198.816l-134.64-193.408zM680.752 608.368l-172.032-492.544-163.456 492.544h335.488zM436.928 128.912l-343.936 479.456h184.832l159.104-479.456zM748.544 608.368h185.168l-352.976-480.56 167.808 480.56zM188.48 877.584l68.096-205.216h-177.248l109.152 205.216z" />
<glyph unicode="&#xe044;" glyph-name="cup" d="M832.56 544.208c-8.336 0-35.2 0.16-64.304 0.368l0.112 63.968c0 35.344-28.656 64-64 64l-640.496 0.16c-35.344 0-64-28.656-64-64v-480.944c0-106.032 85.968-192 192-192h384.656c106.032 0 191.008 85.968 191.008 192l0.064 32.848c29.024-0.224 58.608-0.4 64.976-0.4 105.776 0 191.568 85.040 191.568 191.072-0.016 106.048-85.808 192.928-191.584 192.928zM703.536 127.76c0-70.592-56.4-128-127.008-128h-384.656c-70.592 0-128 57.408-128 128l-0.096 480.944 640.592-0.192-0.832-480.752zM832.56 223.28c-6.352 0-35.888 0.192-64.864 0.4l0.448 256.816c29.12-0.208 56.048-0.368 64.4-0.368 73.12 0 128.624-54.544 128.624-127.84s-55.488-129.008-128.608-129.008zM575.872 736.24c17.664 0 32 14.336 32 32v160c0 17.664-14.336 32-32 32s-32-14.336-32-32v-160c0-17.68 14.336-32 32-32zM191.872 736.24c17.664 0 32 14.336 32 32v160c0 17.664-14.336 32-32 32s-32-14.336-32-32v-160c0-17.68 14.336-32 32-32zM383.872 736.24c17.664 0 32 14.336 32 32v160c0 17.664-14.336 32-32 32s-32-14.336-32-32v-160c0-17.68 14.336-32 32-32z" />
<glyph unicode="&#xe045;" glyph-name="compass" d="M733.184 679.728l-313.152-134.64c-5.664-2.88-10.256-7.472-13.152-13.152l-143.456-289.216c-5.872-11.536-3.744-25.536 5.312-34.784 5.808-5.904 13.632-9.024 21.536-9.024 4.432 0 8.944 0.976 13.12 3.008l305.728 126.976c5.6 2.688 10.224 7.056 13.216 12.496l150.88 296.896c6.432 11.6 4.528 26.032-4.656 35.568-9.216 9.536-23.584 11.872-35.376 5.872zM357.856 295.184l87.008 177.68 87.872-109.984-174.88-67.696zM584.704 400.384l-88.8 111.152 176.784 69.76-87.984-180.912zM512 960c-282.768 0-512-229.232-512-512 0-282.784 229.232-512 512-512 282.784 0 512 229.216 512 512 0 282.768-229.216 512-512 512zM512-1.008c-247.024 0-448 201.984-448 449.008s200.976 448 448 448 448-200.976 448-448-200.976-449.008-448-449.008z" />
<glyph unicode="&#xe048;" glyph-name="call-end" d="M961.696 760.448c0-1.056-0.096-1.936-0.224-2.624-26.16-18-172.432-114.624-199.776-132.16-2.88-0.064-10.192 0.912-20.624 6.4-11.12 5.84-43.536 24.032-88.88 49.904l-35.28 20.128-33.248-23.344c-24.72-17.408-78.464-58.816-160.288-140.624-82.176-82.16-123.456-135.712-140.768-160.336l-23.344-33.248 20.16-35.28c19.536-34.192 42.944-75.504 50-88.944 5.68-10.784 6.128-18.16 6.128-20.16 0-0.32 0-0.592-0.032-0.816-15.36-24.496-114.592-173.936-132.672-200.32-2.56-0.432-8.128-0.032-15.088 4.816-56.256 40.608-114.96 98.24-123.376 120.8 5.632 120.032 111.12 288.464 297.568 474.88 186.464 186.4 354.72 291.872 474.352 297.44 22.624-8.096 80.624-66.816 120.912-122.528 2.832-4.128 4.48-9.232 4.48-13.984M1023.696 760.448c0 16.944-5.12 34.912-15.968 50.496-1.056 1.504-108.256 152.096-170.336 150.096-174.432-5.552-379.44-175.056-520.704-316.272-141.232-141.216-310.8-346.224-316.384-521.344v-1.44c0-61.312 148.672-169.088 150.144-170.128 40.4-28.288 84.88-17.968 102.944 7.776 11.008 15.664 124.976 187.056 137.808 208.064 5.6 9.152 8.336 20.32 8.336 32.464 0 15.664-4.576 33.008-13.472 49.936-8.688 16.496-37.12 66.464-51.088 90.912 15.12 21.536 53.872 72.128 133.664 151.84 79.184 79.216 130.192 118.32 151.84 133.536 24.432-13.936 74.4-42.336 90.848-50.976 31.008-16.368 61.968-18.224 82.848-4.944 19.68 12.464 189.808 125.968 206 137.68 15.28 11.056 23.52 30.848 23.52 52.304v0z" />
<glyph unicode="&#xe049;" glyph-name="calculator" d="M960 960.096h-896c-35.184 0-64-28.816-64-64v-896.192c0-35.184 28.816-64 64-64h896c35.184 0 64 28.816 64 64v896.192c0 35.184-28.816 64-64 64zM960-0.096h-896v896.192h896v-896.192zM224 607.696h64v-64c0-17.664 14.336-32 32-32s32 14.336 32 32v64h64c17.664 0 32 14.336 32 32s-14.336 32-32 32h-64v64c0 17.664-14.336 32-32 32s-32-14.336-32-32v-64h-64c-17.664 0-32-14.336-32-32s14.336-32 32-32zM433.136 368.848c-12.496 12.496-32.752 12.496-45.248 0l-67.888-67.872-67.888 67.872c-12.496 12.496-32.752 12.496-45.264 0-12.496-12.496-12.496-32.768 0-45.264l67.872-67.872-67.872-67.872c-12.496-12.496-12.496-32.768 0-45.264s32.752-12.496 45.264 0l67.888 67.856 67.888-67.872c12.496-12.496 32.752-12.496 45.248 0s12.496 32.768 0 45.264l-67.872 67.872 67.872 67.872c12.496 12.512 12.496 32.768 0 45.28zM608 607.696h192c17.664 0 32 14.336 32 32s-14.336 32-32 32h-192c-17.664 0-32-14.336-32-32s14.336-32 32-32zM608 287.696h192c17.664 0 32 14.336 32 32s-14.336 32-32 32h-192c-17.664 0-32-14.336-32-32s14.336-32 32-32zM608 159.696h192c17.664 0 32 14.336 32 32s-14.336 32-32 32h-192c-17.664 0-32-14.336-32-32s14.336-32 32-32z" />
<glyph unicode="&#xe04a;" glyph-name="bubbles" d="M424.816 280.656c230.944 0 409.904 131.904 407.152 327.632 0 173.184-183.216 311.632-414.16 311.632-230.976 0-418.16-138.448-418.16-311.632 0-107.872 52.912-222.88 163.408-279.376 0-0.656-0.192-1.152-0.192-1.872 0-46.88-39.024-111.152-54.4-137.664h0.064c-1.216-2.88-1.952-6-1.952-9.344 0-13.12 10.576-23.664 23.696-23.664 1.936 0 5.088 0.4 6.224 0.4 0.32 0 0.432 0 0.4-0.096 81.664 13.344 202.256 105.248 220.128 127.024 18.336-2.72 30.72-3.152 46.080-3.152 6.528 0.016 13.472 0.112 21.712 0.112zM330.688 349.536l-40.976-34.032c-9.504-10.976-50.8-45.44-86.352-67.808 21.648 61.68 20.704 81.216 20.704 81.216l3.008 39.152-34.88 17.808c-88.672 45.344-128.528 139.744-128.528 222.4 0 137.664 158.864 247.632 354.16 247.632 195.28 0 350.16-109.968 350.16-247.632-0.608-152.608-145.872-264.624-341.152-264.624 0 0-29.808-1.152-60.4 3.376l-35.744 2.512zM1024.336 349.808c0 86.736-33.888 152.88-118.448 202.512-2.064-23.072-8.64-47.824-15.792-69.568 54.656-37.776 70.256-76.56 70.256-132.944 0-69.024-32.16-119.088-106.912-157.344l-31.84-15.808c0 0 3.312-82 8.224-102.752-62.448 45.776-83.904 84-83.904 84l-33.664-5.184c-13.312-1.936-49.312-1.968-49.312-1.968-86.944 0-151.376 20.72-206.336 63.744 14.928 0.912-89.184 0.88-91.504-1.152 63.568-77.632 167.472-126.592 297.84-126.592 7.088 0 13.088-0.064 18.72-0.064 13.28 0 24 0.368 39.84 2.688 15.488-18.784 102.224-101.504 172.816-113.008-0.032 0.064 0.064 0.064 0.368 0.064 0.944 0 3.68-0.336 5.344-0.336 11.344 0 20.496 9.12 20.496 20.464 0 2.88-0.656 5.6-1.68 8.064h0.064c-13.28 22.88-34.128 89.744-34.128 130.256 0 0.624-0.192 1.056-0.192 1.632 95.504 48.832 139.744 120.080 139.744 213.296z" />
<glyph unicode="&#xe04b;" glyph-name="briefcase" d="M960.016 768.528h-255.6v62c0 52.944-43.056 96-96 96h-192.432c-52.944 0-96-43.056-96-96v-62h-255.968c-35.184 0-64-28.816-64-64v-224.256h-0.032v-64h0.032v-382.816c0-35.184 28.816-64 64-64h896c35.184 0 64 28.816 64 64v671.072c0 35.184-28.816 64-64 64zM383.984 830.528c0 17.664 14.336 32 32 32h192.432c17.664 0 32-14.336 32-32v-62h-256.432v62zM64.016 704.528h896v-224.256h-352.368v32.752c0 35.28-28.72 64-64 64h-63.744c-35.28 0-64-28.72-64-64v-32.752h-351.888v224.256zM543.696 351.872h-63.808v161.152h63.744l0.064-161.152zM64.016 33.472v382.816h351.872v-64.4c0-35.28 28.72-64 64-64h63.744c35.28 0 64 28.72 64 64v64.4h352.368v-382.816h-895.984z" />
<glyph unicode="&#xe04c;" glyph-name="book-open" d="M952.080 958.448l-423.040-114.592c-10.752-2.88-34.096-2.848-44.816 0.16l-412.144 114.208c-36.784 10.128-72.416-16.4-72.416-54.272v-778.112c0-32.096 24.336-62.784 55.312-71.408l412.16-114.224c11.024-3.056 25.216-4.752 39.936-4.752 10.096 0 25.008 0.784 38.72 4.528l423.024 114.592c31.056 8.4 55.504 39.024 55.504 71.248v778.128c0.016 37.84-35.616 64.464-72.24 54.496zM480 3.056l-408.928 113.056c-3.088 0.848-7.408 6.496-7.408 9.712v768.032l403.472-111.536c3.904-1.088 8.288-1.936 12.864-2.656v-776.608zM960.336 125.824c0-3.152-5.184-8.656-8.256-9.504l-408.080-110.528v775.92c0.592 0.144 1.2 0.224 1.792 0.384l414.528 112.128v-768.4zM642 593.696c2.88 0 5.808 0.368 8.688 1.184l223.936 63.024c17.024 4.816 26.944 22.464 22.16 39.472s-22.56 26.88-39.472 22.16l-223.936-63.024c-17.024-4.816-26.944-22.464-22.16-39.472 3.968-14.128 16.816-23.344 30.784-23.344zM642 401.696c2.88 0 5.808 0.368 8.688 1.184l223.936 63.024c17.024 4.816 26.944 22.464 22.16 39.472s-22.56 26.88-39.472 22.16l-223.936-63.024c-17.024-4.816-26.944-22.464-22.16-39.456 3.968-14.128 16.816-23.36 30.784-23.36zM642 209.696c2.88 0 5.808 0.368 8.688 1.184l223.936 63.024c17.024 4.816 26.944 22.464 22.16 39.472s-22.56 26.88-39.472 22.16l-223.936-63.024c-17.024-4.816-26.944-22.464-22.16-39.472 3.968-14.112 16.816-23.344 30.784-23.344zM394.624 656.512l-223.936 63.024c-16.912 4.72-34.688-5.152-39.472-22.16s5.12-34.656 22.16-39.472l223.936-63.024c2.88-0.816 5.808-1.184 8.688-1.184 13.968 0 26.816 9.216 30.784 23.344 4.784 16.992-5.12 34.656-22.16 39.472zM394.624 464.512l-223.936 63.024c-16.912 4.72-34.688-5.152-39.472-22.16s5.12-34.656 22.16-39.472l223.936-63.024c2.88-0.816 5.808-1.184 8.688-1.184 13.968 0 26.816 9.216 30.784 23.344 4.784 16.992-5.12 34.656-22.16 39.472zM394.624 272.512l-223.936 63.024c-16.912 4.72-34.688-5.152-39.472-22.16s5.12-34.656 22.16-39.472l223.936-63.024c2.88-0.816 5.808-1.184 8.688-1.184 13.968 0 26.816 9.216 30.784 23.344 4.784 17.008-5.12 34.656-22.16 39.472z" />
<glyph unicode="&#xe04d;" glyph-name="basket-loaded" d="M1015.664 676c-5.968 8.464-15.664 13.504-26 13.504h-99.744l-205.136 174.832c-24.976 24.976-65.52 25.008-90.496 0l-201.648-174.832h-82.096l-51.408 177.28c-20.16 69.808-68.064 77.344-87.712 77.344h-137.088c-17.568 0-31.776-14.224-31.776-31.776s14.224-31.776 31.776-31.776h137.056c4.336 0 17.568 0 26.592-31.184l176.848-649.936c3.84-13.712 16.336-23.184 30.592-23.184h431.968c13.408 0 25.376 8.4 29.904 21.024l152.256 449.68c3.504 9.744 2.048 20.592-3.888 29.024zM639.536 819.072l152.032-129.584h-304.112l152.080 129.584zM815.024 239.808h-385.488l-101.152 386.128h616.096l-129.456-386.128zM752 111.872c-44.192 0-80-35.808-80-80s35.808-80 80-80 80 35.808 80 80-35.808 80-80 80zM464 111.872c-44.192 0-80-35.808-80-80s35.808-80 80-80 80 35.808 80 80-35.808 80-80 80z" />
<glyph unicode="&#xe04e;" glyph-name="basket" d="M1015.664 676c-5.968 8.464-15.664 13.504-26 13.504h-679.136l-51.408 177.28c-20.16 69.808-68.064 77.344-87.712 77.344h-137.072c-17.568 0-31.776-14.224-31.776-31.776s14.224-31.776 31.776-31.776h137.056c4.336 0 17.568 0 26.592-31.184l176.848-649.936c3.84-13.712 16.336-23.184 30.592-23.184h431.968c13.408 0 25.376 8.4 29.904 21.024l152.256 449.68c3.504 9.744 2.048 20.592-3.888 29.024zM815.024 239.808h-385.488l-101.152 386.128h616.096l-129.456-386.128zM752 111.872c-44.192 0-80-35.808-80-80s35.808-80 80-80 80 35.808 80 80-35.808 80-80 80zM464 111.872c-44.192 0-80-35.808-80-80s35.808-80 80-80 80 35.808 80 80-35.808 80-80 80z" />
<glyph unicode="&#xe04f;" glyph-name="bag" d="M864 801.296h-191.184v61.376c0 52.944-43.056 96-96 96h-127.632c-52.944 0-96-43.056-96-96v-61.376h-193.184c-35.344 0-64-28.656-64-64v-735.968c0-35.344 28.656-64 64-64h704c35.344 0 64 28.656 64 64v735.968c0 35.344-28.656 64-64 64zM417.184 862.672c0 17.664 14.336 32 32 32h127.632c17.664 0 32-14.336 32-32v-61.376h-191.632v61.376zM864 1.328h-704v735.968h193.184v-65.84c0 0-0.848-31.968 31.808-31.968 36 0 32.192 31.968 32.192 31.968v65.84h191.632v-65.84c0 0-2.128-32.128 31.872-32.128 32 0 32.128 32.128 32.128 32.128v65.84h191.184v-735.968z" />
<glyph unicode="&#xe050;" glyph-name="action-undo" d="M990.064 17.664c-0.336 0-0.72 0-1.088 0.032-16.192 0.528-26.4 13.088-27.776 29.216-1.088 11.872-33.968 299.088-482.256 298.784v-183.664c0-12.368-7.12-23.664-18.336-28.944-11.088-5.312-24.432-3.68-33.968 4.224l-414.976 343.776c-7.44 6.096-11.712 15.184-11.68 24.784s4.336 18.688 11.776 24.752l414.96 340.56c9.568 7.808 22.784 9.312 33.936 4.096 11.152-5.312 18.288-16.56 18.288-28.912v-179.632c185.968-5.904 330.992-65.712 424.336-174.976 151.936-177.776 118.032-436.16 116.432-446.912-2.368-15.664-13.872-27.184-29.648-27.184zM446.944 410.192c0.032 0 0.064 0 0.064 0 320.224-0.192 442.592-108.32 512.464-203.808-10.224 76.496-40.064 168.72-105.008 244.032-86.336 100.096-225.44 152.848-407.536 152.848-17.68 0-32 14.32-32 32v143.776l-332.432-273.36 332.432-275.904v148.4c0 8.496 3.376 16.656 9.408 22.656 6 5.984 14.128 9.36 22.608 9.36z" />
<glyph unicode="&#xe051;" glyph-name="action-redo" d="M33.936 17.664c0.336 0 0.72 0 1.088 0.032 16.192 0.528 26.4 13.088 27.776 29.216 1.088 11.872 32.976 299.088 481.248 298.784l1.008-183.664c0-12.368 7.12-23.664 18.336-28.944 11.088-5.312 24.432-3.68 33.968 4.224l414.976 343.776c7.44 6.096 11.712 15.184 11.68 24.784s-4.336 18.688-11.776 24.752l-414.96 340.56c-9.568 7.808-22.784 9.312-33.936 4.096-11.152-5.312-18.288-16.56-18.288-28.912l-1.008-179.632c-185.952-5.888-329.968-65.712-423.328-174.96-151.936-177.776-118.032-436.16-116.432-446.912 2.368-15.68 13.872-27.2 29.648-27.2zM577.056 410.192c-0.032 0-0.064 0-0.064 0-320.208-0.192-442.592-108.32-512.464-203.824 10.224 76.496 40.064 168.72 105.008 244.032 86.336 100.096 225.44 152.848 407.536 152.848 17.68 0 32 14.32 32 32v143.776l332.432-273.344-332.448-275.904v148.4c0 8.496-3.376 16.656-9.408 22.656-5.984 5.984-14.112 9.36-22.592 9.36z" />
<glyph unicode="&#xe054;" glyph-name="trash" d="M896.8 800.976h-225.28v87.264c0 40.528-33.008 72.496-73.536 72.496h-171.984c-40.528 0-73.52-31.968-73.52-72.496v-87.264h-225.28c-17.664 0-32-14.336-32-32s14.336-32 32-32h44.016l74.24-739.92c3.104-34.624 32.608-61.776 67.136-61.776h398.8c34.528 0 64 27.152 67.088 61.472l74.304 740.24h44.016c17.68 0 32 14.336 32 32s-14.32 31.984-32 31.984zM416.48 888.24c0 5.232 4.272 9.504 9.52 9.504h171.984c5.248 0 9.536-4.272 9.536-9.504v-87.264h-191.040v87.264zM714.768 2.8c-0.16-1.776-2.256-3.536-3.376-3.536h-398.8c-1.12 0-3.232 1.744-3.424 3.84l-73.632 733.856h552.912l-73.68-734.16z" />
<glyph unicode="&#xe055;" glyph-name="tag" d="M1023.984 543.728v338.368c0 42.944-34.944 77.904-77.872 77.904h-345.376c-21.68 0-54.496 0-75.92-21.44l-505.936-505.952c-12.16-12.16-18.88-28.304-18.88-45.488 0-17.216 6.688-33.376 18.848-45.536l386.8-386.72c12.112-12.176 28.272-18.864 45.456-18.864s33.36 6.688 45.488 18.848l505.952 505.968c21.696 21.648 21.568 52.816 21.44 82.912zM957.296 506.064l-506.416-505.936-386.752 387.216 505.392 505.504c5.088 3.152 23.408 3.152 30.992 3.152l14.4-0.048 331.2 0.048c7.664 0 13.872-6.24 13.872-13.904v-338.624c0.064-12.176 0.128-32.544-2.688-37.408zM768.016 832c-70.688 0-128-57.312-128-128s57.312-128 128-128 128 57.312 128 128-57.312 128-128 128zM768.016 640c-35.344 0-64 28.656-64 64s28.656 64 64 64 64-28.656 64-64-28.656-64-64-64z" />
<glyph unicode="&#xe056;" glyph-name="support" d="M512 960c-282.768 0-512-229.232-512-512s229.232-512 512-512 512 229.232 512 512-229.232 512-512 512zM640 877.024c144.224-42.992 257.648-156.8 300.704-301.024h-207.568c-22.416 38.528-54.592 70.672-93.136 93.056v207.968zM703.632 447.792c0-105.936-85.792-191.808-191.632-191.808s-191.632 85.872-191.632 191.808 85.808 191.824 191.632 191.824 191.632-85.888 191.632-191.824zM448 891.072c20.912 2.992 42.256 4.624 64 4.624 21.728 0 43.088-1.632 64-4.624v-195.808c-20.48 5.296-41.856 8.4-64 8.4s-43.504-3.104-64-8.4v195.808zM384 877.024v-207.968c-38.56-22.384-70.72-54.544-93.136-93.056h-207.568c43.040 144.224 156.48 258.032 300.704 301.024zM64.304 447.84c0 21.824 1.856 43.168 4.88 64.16h195.392c-5.312-20.512-8.24-41.984-8.24-64.176 0-22.064 2.912-43.424 8.16-63.824h-195.36c-2.976 20.88-4.832 42.144-4.832 63.84zM384 18.672c-144.336 43.008-257.808 156.976-300.8 301.328h207.472c22.432-38.656 54.656-70.944 93.328-93.392v-207.936zM576 4.624c-20.912-2.992-42.272-4.624-64-4.624-21.744 0-43.088 1.648-64 4.624v195.776c20.496-5.296 41.856-8.4 64-8.4s43.52 3.104 64 8.4v-195.776zM640 18.672v207.936c38.656 22.448 70.896 54.736 93.312 93.392h207.472c-42.992-144.336-156.464-258.32-300.784-301.328zM759.504 384c5.248 20.4 8.16 41.76 8.16 63.824 0 22.192-2.928 43.664-8.256 64.176h195.408c3.008-20.992 4.88-42.336 4.88-64.16 0-21.696-1.84-42.976-4.832-63.84h-195.36z" />
<glyph unicode="&#xe05a;" glyph-name="share-alt" d="M901.84 10.624h-832v640h257.6l64.72 62.336-1.664 1.664h-320.656c-35.344 0-64-28.656-64-64v-640c0-35.344 28.656-64 64-64h832c35.344 0 64 28.656 64 64v500.672l-64-61.088v-439.584zM270.128 266.624h64.48c44.864 254.496 266.544 448 533.888 448 11.216 0 21.856-0.096 32.624-0.176l-117.248-117.232c-12.464-12.496-12.464-32.752 0-45.248 6.256-6.256 14.464-9.376 22.656-9.376s16.336 3.12 22.592 9.376l189.024 194-189.024 194.032c-12.464 12.496-32.72 12.496-45.248 0-12.464-12.496-12.464-32.752 0-45.248l116.176-116.16c-10.032 0.016-19.968 0.048-30.208 0.048-303.056 0-553.568-221.952-599.712-512.016z" />
<glyph unicode="&#xe05b;" glyph-name="share" d="M864 256c-52.688 0-99.296-25.584-128.432-64.88l-421.36 214.72c3.664 13.456 5.792 27.536 5.792 42.16 0 18.304-3.216 35.808-8.88 52.176l423.76 205.616c29.088-39.808 76.016-65.792 129.12-65.792 88.368 0 160 71.648 160 160 0 88.368-71.632 160-160 160s-160-71.632-160-160c0-12.432 1.568-24.464 4.24-36.080l-429.84-208.576c-29.28 32.272-71.392 52.656-118.4 52.656-88.368 0-160-71.632-160-160 0-88.352 71.632-160 160-160 50.896 0 96.128 23.824 125.424 60.864l423.104-215.632c-2.864-11.968-4.528-24.384-4.528-37.232 0-88.368 71.632-160 160-160s160 71.632 160 160-71.632 160-160 160zM864 896c53.008 0 96-42.992 96-96s-42.992-96-96-96-96 42.992-96 96 42.992 96 96 96zM160 352c-53.024 0-96 42.992-96 96s42.976 96 96 96c53.008 0 96-42.992 96-96s-42.992-96-96-96zM864 0c-53.008 0-96 42.992-96 96s42.992 96 96 96 96-42.992 96-96-42.992-96-96-96z" />
<glyph unicode="&#xe05d;" glyph-name="question" d="M512 960c-282.768 0-512-229.232-512-512 0-282.784 229.232-512 512-512 282.784 0 512.016 229.216 512.016 512 0 282.768-229.232 512-512.016 512zM512-1.008c-247.024 0-448 201.984-448 449.008s200.976 448 448 448 448.016-200.976 448.016-448-200.992-449.008-448.016-449.008zM464.944 159.52h80.512v81.248h-80.512v-81.248zM511.056 736.464c-46.88 0-85.504-12.64-115.84-37.888-30.336-25.264-45.088-75.856-44.336-117.776l1.184-2.336h73.44c0 25.008 8.336 60.944 25.008 73.84 16.656 12.88 36.848 19.328 60.56 19.328 27.328 0 48.336-7.424 63.072-22.272 14.72-14.848 22.064-36.080 22.064-63.664 0-23.184-5.44-42.976-16.368-59.376-10.96-16.4-29.328-39.84-55.088-70.32-26.576-23.968-42.992-43.232-49.232-57.808-6.256-14.592-9.504-40.768-9.744-78.512h76.96c0 23.68 1.504 41.136 4.496 52.336 2.976 11.184 11.504 23.824 25.568 37.888 30.224 29.152 54.496 57.664 72.88 85.552 18.336 27.856 27.52 58.592 27.52 92.192 0 46.88-14.176 83.408-42.576 109.568-28.416 26.176-68.272 39.248-119.568 39.248z" />
<glyph unicode="&#xe05f;" glyph-name="pencil" d="M964.256 910.336c-34.864 33.408-73.328 50.336-114.384 50.336-64.192 0-111.024-41.472-123.84-54.176-18.032-17.856-633.152-633.2-633.152-633.2-4.016-4.032-6.944-9.072-8.448-14.592-13.872-51.264-83.36-278.72-84.048-281.008-3.568-11.648-0.384-24.336 8.208-32.928 6.176-6.144 14.4-9.44 22.832-9.44 3.312 0 6.656 0.496 9.92 1.568 2.352 0.768 237.136 76.656 275.776 88.192 5.088 1.536 9.744 4.288 13.536 8.032 24.416 24.128 598.128 591.456 636.208 630.784 39.392 40.592 58.96 82.864 58.208 125.616-0.784 42.208-21.248 82.848-60.816 120.816zM715.84 804.16c16.304-3.952 54.752-16.864 94.016-56.48 39.68-40.032 50.416-85.792 52.416-96.208-125.824-125.168-415.456-411.728-529.632-524.672-10.544 24.56-27.584 54.144-54.992 81.76-33.472 33.728-67.536 52.784-93.808 63.504 112.992 113.008 408.080 408.224 532 532.096zM140.384 218.048c17.584-4.672 54.112-18.224 91.344-55.76 28.672-28.912 42.208-60.8 48.288-80.24-44.48-14.304-141.872-47.92-203.76-67.872 18.336 60.336 49.312 154.304 64.128 203.872zM920.416 709.632c-1.312-1.344-3.472-3.536-6.064-6.16-10.112 26.048-27.856 59.52-58.576 90.496-31.392 31.648-63.232 50.32-88.752 61.36 2.176 2.16 3.856 3.856 4.512 4.496 3.664 3.616 36.896 35.376 78.32 35.376 23.84 0 47.248-10.88 69.616-32.32 26.512-25.424 40.176-50.512 40.624-74.592 0.432-24.576-12.912-51.040-39.68-78.656z" />
<glyph unicode="&#xe060;" glyph-name="note" d="M799.344-0.288h-736v800h449.6l64.704 62.336-1.664 1.664h-512.64c-35.344 0-64-28.656-64-64v-800c0-35.344 28.656-64 64-64h736c35.344 0 64 28.656 64 64v468.656l-64-61.088v-407.568zM974.224 918.56c-28.88 27.68-60.752 41.712-94.752 41.712-53.216 0-92.032-34.368-102.592-44.896-14.976-14.784-439.168-438.352-439.168-438.352-3.328-3.392-5.76-7.536-7.008-12.144-11.488-42.448-69.072-230.992-69.648-232.864-2.976-9.664-0.32-20.192 6.8-27.216 5.104-5.12 11.92-7.84 18.912-7.84 2.752 0 5.52 0.4 8.24 1.248 1.952 0.656 196.496 63.568 228.512 73.12 4.224 1.248 8.048 3.536 11.216 6.624 20.208 19.936 410.112 403.792 441.664 436.384 32.624 33.664 48.848 68.656 48.224 104.096-0.592 35.008-17.616 68.704-50.4 100.128zM930.432 758.88c-17.808-18.368-157.248-156.16-414.448-409.536l-19.68-19.408c-29.488-9.12-100.096-31.808-153.472-49.024 17.184 56.752 37.808 125.312 47.008 157.744 54.96 54.88 418.384 417.744 432.192 431.376 2.688 2.688 27.216 26.256 57.44 26.256 17.152 0 33.68-7.824 50.464-23.92 20.064-19.248 30.4-37.744 30.688-55.024 0.32-17.792-9.84-37.456-30.192-58.464z" />
<glyph unicode="&#xe061;" glyph-name="music-tone-alt" d="M991.728 254.592c0.016 0.56 0.16 1.072 0.16 1.632v667.024c0.384 3.504 0.256 7.12-0.576 10.752-2.736 14.912-15.728 26.224-31.424 26.224-5.888 0-11.344-1.696-16.080-4.48l-597.872-155.648c-10.768-2.672-18.752-10.72-22.032-20.672-2.48-4.544-4-9.664-4-15.2v-572.544c-30.464 20.384-69.408 32.656-111.872 32.656-97.536 0-176.64-64.608-176.64-144.272 0-79.68 79.104-144.304 176.64-144.304 97.568 0 176.608 64.608 176.608 144.304 0 4.064-0.336 8.064-0.736 12.048 0 0.032 0 0.064 0 0.096v651.648l544 141.6v-533.76c-30.448 20.384-69.408 32.656-111.872 32.656-97.536 0-176.64-64.624-176.64-144.272 0-79.68 79.104-144.304 176.64-144.304 97.568 0 176.608 64.608 176.608 144.304-0.016 4.912-0.32 9.744-0.912 14.512zM208.704 0.048c-66.56 0-112.96 42.192-112.96 80 0 37.824 46.384 79.952 112.96 79.952 59.232 0 102.4-33.392 111.184-67.408v-0.368c0-3.232 0.624-6.288 1.52-9.216 0.064-0.992 0.224-1.968 0.224-2.96 0-37.808-46.4-80-112.928-80zM815.696 160.048c-65.968 0-111.952 42.176-111.952 80s45.984 79.952 111.952 79.952c65.952 0 111.936-42.128 111.936-79.952s-45.968-80-111.936-80z" />
<glyph unicode="&#xe062;" glyph-name="music-tone" d="M852.608 636.704l-312.912 312.912c-9.92 9.92-24.672 11.84-36.608 6.016-12.544-4.336-21.6-16.112-21.6-30.128v-708.4c-33.92 25.12-78.432 40.528-127.376 40.528-106.064 0-192.112-71.776-192.112-160.288 0-88.544 86.048-160.336 192.112-160.336 106.112 0 192.080 71.776 192.080 160.336 0 3.92-0.368 7.76-0.704 11.632v744.336l261.872-261.856c12.48-12.496 32.752-12.496 45.248 0s12.496 32.768 0 45.248zM353.376 1.424c-75.648 0-128.352 50.544-128.352 95.872s52.72 95.824 128.352 95.824c74.032 0 126-48.4 128.128-92.992v-5.68c-2.144-44.576-54.096-93.024-128.128-93.024z" />
<glyph unicode="&#xe063;" glyph-name="microphone" d="M510.88 256h7.6c88.96 0 153.52 65.6 153.52 155.968v381.408c0 93.44-67.44 166.624-153.536 166.624h-7.584c-87.616 0-158.88-74.752-158.88-166.624v-381.408c0-88.912 68.304-155.968 158.88-155.968zM416 793.376c0 56.592 42.56 102.624 94.88 102.624h7.6c51.024 0 89.52-44.128 89.52-102.624v-381.408c0-54.992-35.968-91.968-89.536-91.968h-7.584c-55.872 0-94.88 37.808-94.88 91.968v381.408zM800 608c-17.68 0-32-14.336-32-32v-133.072c0-190.4-67.968-282.928-207.744-282.928h-95.136c-182.8 0-209.12 153.84-209.12 282.928v133.072c0 17.664-14.336 32-32 32s-32-14.336-32-32v-133.072c0-220.496 91.888-346.928 273.12-346.928h14.88v-96h-160c-17.664 0-32-14.336-32-32s14.336-32 32-32h384c17.664 0 32 14.336 32 32s-14.336 32-32 32h-160v96h16.256c123.968 0 271.744 60.192 271.744 346.928v133.072c0 17.664-14.32 32-32 32z" />
<glyph unicode="&#xe067;" glyph-name="list" d="M96 512h-64c-17.664 0-32-14.336-32-32v-64c0-17.664 14.336-32 32-32h64c17.664 0 32 14.336 32 32v64c0 17.664-14.336 32-32 32zM992 480h-672c-17.664 0-32-14.336-32-32s14.336-32 32-32h672c17.664 0 32 14.336 32 32s-14.336 32-32 32zM96 256h-64c-17.664 0-32-14.336-32-32v-64c0-17.664 14.336-32 32-32h64c17.664 0 32 14.336 32 32v64c0 17.664-14.336 32-32 32zM992 224h-672c-17.664 0-32-14.336-32-32s14.336-32 32-32h672c17.664 0 32 14.336 32 32s-14.336 32-32 32zM96 768h-64c-17.664 0-32-14.336-32-32v-64c0-17.664 14.336-32 32-32h64c17.664 0 32 14.336 32 32v64c0 17.664-14.336 32-32 32zM320 672h672c17.664 0 32 14.336 32 32s-14.336 32-32 32h-672c-17.664 0-32-14.336-32-32s14.336-32 32-32z" />
<glyph unicode="&#xe069;" glyph-name="home" d="M1016.704 446.64l-480.368 503.168c-6.032 6.304-14.368 9.84-23.088 9.84-8.704 0-17.040-3.552-23.088-9.84l-482.848-503.152c-12.24-12.752-11.808-32.992 0.944-45.248 12.752-12.224 32.992-11.872 45.248 0.944l43.008 44.832v-478.832c0-17.68 14.336-32 32-32h223.552c17.632 0 31.936 14.256 32 31.904l1.008 319.664h254.992v-319.568c0-17.68 14.32-32 32-32h223.472c17.68 0 32 14.32 32 32v478.992l42.992-45.040c6.288-6.528 14.688-9.84 23.088-9.84 7.968 0 15.968 2.944 22.16 8.944 12.736 12.224 13.152 32.48 0.928 45.232zM863.536 505.184v-504.832h-159.472v319.552c0 17.68-14.32 32-32 32h-318.88c-17.632 0-31.936-14.256-32-31.904l-1.008-319.664h-159.664v504.848c0 2.64-0.416 5.168-1.008 7.632l353.76 368.624 351.424-368.208c-0.688-2.592-1.152-5.264-1.152-8.048z" />
<glyph unicode="&#xe06a;" glyph-name="grid" d="M960-64h-320c-35.344 0-64 28.656-64 64v320c0 35.344 28.656 64 64 64h320c35.344 0 64-28.656 64-64v-320c0-35.344-28.656-64-64-64zM960 320h-320v-320h320v320zM960 512h-320c-35.344 0-64 28.656-64 64v320c0 35.344 28.656 64 64 64h320c35.344 0 64-28.656 64-64v-320c0-35.344-28.656-64-64-64zM960 896h-320v-320h320v320zM384-64h-320c-35.344 0-64 28.656-64 64v320c0 35.344 28.656 64 64 64h320c35.344 0 64-28.656 64-64v-320c0-35.344-28.656-64-64-64zM384 320h-320v-320h320v320zM384 512h-320c-35.344 0-64 28.656-64 64v320c0 35.344 28.656 64 64 64h320c35.344 0 64-28.656 64-64v-320c0-35.344-28.656-64-64-64zM384 896h-320v-320h320v320z" />
<glyph unicode="&#xe06b;" glyph-name="graph" d="M944 736c-44.192 0-80-35.824-80-80 0-9.072 1.84-17.632 4.608-25.76l-195.008-167.92c-13.68 10.896-30.752 17.68-49.6 17.68-21.744 0-41.408-8.736-55.808-22.816l-152.752 76.48c-2.976 41.488-37.2 74.336-79.44 74.336-44.176 0-80-35.824-80-80 0-12.096 2.88-23.44 7.68-33.712l-155.744-179.584c-8.736 3.264-18.064 5.296-27.936 5.296-44.176 0-80-35.824-80-80s35.824-80 80-80 80 35.824 80 80c0 10.64-2.176 20.768-5.952 30.048l158.272 181.92c7.536-2.336 15.376-3.968 23.68-3.968 23.28 0 44.048 10.112 58.672 26l149.408-74.912c0.528-43.744 36.048-79.088 79.92-79.088 44.192 0 80 35.824 80 80 0 1.424-0.336 2.752-0.416 4.16l208.096 178.768c9.904-4.384 20.784-6.928 32.32-6.928 44.192 0 80 35.808 80 80 0 44.176-35.808 80-80 80z" />
<glyph unicode="&#xe06e;" glyph-name="cursor" d="M921.088 856.768l-336.256-785.792-119.312 344.512-344.192 104.032 799.76 337.248M1004.464 959.232c-6.096 0-13.52-1.728-22.096-5.36l-954.656-405.072c-34.384-14.592-36.56-42.704-4.848-62.464l395.296-123.584 129.36-403.264c9.28-15.184 20.496-22.72 31.264-22.72 11.936 0 23.296 9.152 31.040 27.248l408.272 953.728c11.056 25.888 4.768 41.488-13.632 41.488v0z" />
<glyph unicode="&#xe071;" glyph-name="control-play" d="M144.624 894.608l735.744-446.592-736.736-446.624 0.992 893.216M144.624 958.608c-10.72 0-21.408-2.672-31.088-8.064-20.32-11.28-32.912-32.704-32.912-55.936l-0.992-893.216c0-23.248 12.592-44.656 32.912-55.936 9.68-5.376 20.368-8.064 31.088-8.064 11.712 0 23.472 3.216 33.776 9.664l736.72 446.624c18.816 11.664 30.256 32.224 30.256 54.336s-11.44 42.672-30.256 54.352l-735.728 446.608c-10.304 6.4-22.064 9.632-33.776 9.632v0z" />
<glyph unicode="&#xe075;" glyph-name="calendar" d="M960 864.112h-256.224v63.776c0 17.68-14.32 32-32 32s-32-14.32-32-32v-63.76h-256v63.76c0 17.68-14.32 32-32 32s-32-14.32-32-32v-63.76h-255.776c-35.344 0-64-28.656-64-64v-800c0-35.344 28.656-64 64-64h896c35.344 0 64 28.656 64 64v800c0 35.328-28.656 63.984-64 63.984zM960 0.128h-896v800h255.776v-32.24c0-17.68 14.32-32 32-32s32 14.32 32 32v32.224h256v-32.24c0-17.68 14.32-32 32-32s32 14.32 32 32v32.24h256.224v-799.984zM736 448.112h64c17.664 0 32 14.336 32 32v64c0 17.664-14.336 32-32 32h-64c-17.664 0-32-14.336-32-32v-64c0-17.664 14.336-32 32-32zM736 192.128h64c17.664 0 32 14.32 32 32v64c0 17.664-14.336 32-32 32h-64c-17.664 0-32-14.336-32-32v-64c0-17.696 14.336-32 32-32zM544 320.128h-64c-17.664 0-32-14.336-32-32v-64c0-17.68 14.336-32 32-32h64c17.664 0 32 14.32 32 32v64c0 17.648-14.336 32-32 32zM544 576.112h-64c-17.664 0-32-14.336-32-32v-64c0-17.664 14.336-32 32-32h64c17.664 0 32 14.336 32 32v64c0 17.68-14.336 32-32 32zM288 576.112h-64c-17.664 0-32-14.336-32-32v-64c0-17.664 14.336-32 32-32h64c17.664 0 32 14.336 32 32v64c0 17.68-14.336 32-32 32zM288 320.128h-64c-17.664 0-32-14.336-32-32v-64c0-17.68 14.336-32 32-32h64c17.664 0 32 14.32 32 32v64c0 17.648-14.336 32-32 32z" />
<glyph unicode="&#xe076;" glyph-name="bulb" d="M511.984 960c-198.032 0-353.12-161.104-353.12-359.136 0-149.2 73.28-220.256 131.184-272.128 37.28-33.424 62.368-53.552 62.368-78.352v-54.256c0-1.392 0.192-2.752 0.368-4.128h-0.72v-92.624c0.016-97.712 63.2-163.376 161.072-163.376 94.464 0 158.944 65.664 158.944 163.376v92.624h-0.928c0.176 1.376 0.416 2.736 0.416 4.128v54.256c0 37.76 28.032 60.592 70.528 97.696 57.504 50.208 123.024 112.688 123.024 252.784 0.016 198.032-155.104 359.136-353.136 359.136zM510.768 0c-59.904 0-94.688 37.152-94.688 99.376l-0.464 42.672c23.024-7.872 54.384-14.048 96.384-14.048 41.424 0 72.848 6.624 96.080 14.768v-43.392c0-63.152-35.248-99.376-97.312-99.376zM700.016 396.288c-43.472-37.968-92.432-77.216-92.432-145.904v-40.432c-15.184-8.48-43.184-18.56-96.128-18.56-55.568 0-81.92 9.856-95.024 17.472v41.536c0 54.608-42.688 89.296-83.68 126.016-54.32 48.672-109.872 103.84-109.872 224.464-0.016 162.72 126.384 295.12 289.104 295.12 162.752 0 289.152-132.4 289.152-295.136 0-111.024-48.464-158.576-101.12-204.576z" />
<glyph unicode="&#xe077;" glyph-name="bar-chart" d="M272.064 640.016h-224.064c-17.68 0-32-14.32-32-32v-640.016c0-17.68 14.32-32 32-32h224.064c17.68 0 32 14.32 32 32v640.016c0 17.68-14.32 32-32 32zM240.064 0h-160.064v576.016h160.064v-576.016zM623.744 449.744h-224.080c-17.68 0-32-14.32-32-32v-449.744c0-17.68 14.32-32 32-32h224.080c17.68 0 32 14.32 32 32v449.744c0 17.696-14.304 32-32 32zM591.744 0h-160.080v385.744h160.080v-385.744zM976 960h-223.728c-17.68 0-32-14.32-32-32v-960c0-17.68 14.32-32 32-32h223.728c17.68 0 32 14.32 32 32v960c0 17.68-14.32 32-32 32zM944 0h-159.728v896h159.728v-896z" />
<glyph unicode="&#xe078;" glyph-name="arrow-up" d="M1024 448c0 282.784-229.232 512-512 512-282.784 0-512-229.216-512-512 0-282.768 229.216-512 512-512 282.768 0 512 229.232 512 512zM63.008 448c0 247.024 201.968 448 448.992 448s448-200.976 448-448-200.976-448-448-448-448.992 200.976-448.992 448zM544.336 223.68v360.464l115.76-115.76c12.496-12.496 32.752-12.496 45.248 0s12.496 32.752 0 45.248l-194 189.008-194-189.008c-6.256-6.256-9.376-14.432-9.376-22.624s3.12-16.368 9.376-22.624c12.496-12.496 32.752-12.496 45.248 0l117.744 117.76v-362.464c0-17.68 14.336-32 32-32s32 14.32 32 32z" />
<glyph unicode="&#xe079;" glyph-name="arrow-right" d="M512 960c-282.768 0-512-229.232-512-512 0-282.784 229.232-512 512-512 282.784 0 512 229.216 512 512 0 282.768-229.216 512-512 512zM512-1.008c-247.024 0-448 201.984-448 449.008s200.976 448 448 448 448-200.976 448-448-200.976-449.008-448-449.008zM532.368 641.36c-12.496-12.496-12.496-32.752 0-45.248l115.76-115.76h-360.448c-17.68 0-32-14.336-32-32s14.32-32 32-32h362.464l-117.76-117.744c-12.496-12.496-12.496-32.752 0-45.248 6.256-6.256 14.432-9.376 22.624-9.376s16.368 3.12 22.624 9.376l189.008 194-189.008 194c-12.512 12.496-32.752 12.496-45.264 0z" />
<glyph unicode="&#xe07a;" glyph-name="arrow-left" d="M512 960c-282.784 0-512-229.232-512-512 0-282.784 229.216-512 512-512 282.768 0 512 229.216 512 512 0 282.768-229.232 512-512 512zM512-1.008c-247.024 0-448 201.984-448 449.008s200.976 448 448 448 448-200.976 448-448-200.976-449.008-448-449.008zM736.32 480.336h-360.464l115.76 115.76c12.496 12.496 12.496 32.752 0 45.248s-32.752 12.496-45.248 0l-189.008-194 189.008-194c6.256-6.256 14.432-9.376 22.624-9.376s16.368 3.12 22.624 9.376c12.496 12.496 12.496 32.752 0 45.248l-117.76 117.744h362.464c17.68 0 32 14.336 32 32s-14.32 32-32 32z" />
<glyph unicode="&#xe07b;" glyph-name="arrow-down" d="M0 448c0-282.784 229.232-512 512-512 282.784 0 512 229.216 512 512 0 282.768-229.216 512-512 512-282.768 0-512-229.232-512-512zM961.008 448c0-247.024-201.968-448-449.008-448s-448 200.976-448 448 200.976 448 448 448 449.008-200.976 449.008-448zM479.664 672.32v-360.448l-115.76 115.76c-12.496 12.496-32.752 12.496-45.248 0s-12.496-32.752 0-45.248l194.016-189.008 194 189.008c6.256 6.256 9.376 14.432 9.376 22.624s-3.12 16.368-9.376 22.624c-12.496 12.496-32.752 12.496-45.248 0l-117.744-117.76v362.448c0 17.68-14.336 32-32 32s-32.016-14.32-32.016-32z" />
<glyph unicode="&#xe07c;" glyph-name="ban" d="M512 960c-282.768 0-512-229.232-512-512 0-282.784 229.232-512 512-512 282.784 0 512 229.216 512 512 0 282.768-229.216 512-512 512zM64 448c0 112.272 41.616 214.96 110.096 293.664l631.856-631.856c-78.736-68.88-181.536-110.816-293.952-110.816-247.024 0-448 201.984-448 449.008zM851.024 155.216l-631.616 631.616c78.576 67.936 180.832 109.168 292.592 109.168 247.024 0 448-200.976 448-448 0-111.664-41.152-214.032-108.976-292.784z" />
<glyph unicode="&#xe07d;" glyph-name="bubble" d="M512 832c247.024 0 448-143.552 448-320 0-176.432-200.976-320-448-320l-26.512-0.096c-17.584 0-29.088 0.464-47.072 3.152l-35.856 5.12-23.008-27.84c-10.576-12.784-64.544-57.12-124.112-85.664 12.112 32.032 21.040 67.008 21.84 101.6l0.32 1.904v44.624l-34.864 17.808c-113.6 58.112-178.736 152.64-178.736 259.392 0 176.448 200.976 320 448 320M512 896c-282.8 0-512-171.936-512-384 0-132.064 78.256-247.152 213.584-316.336 0-0.816-0.256-1.408-0.256-2.32 0-57.376-32.16-120.464-51.008-152.944h0.048c-1.488-3.488-2.368-7.312-2.368-11.408 0-16.080 12.96-28.992 29.008-28.992 2.416 0 6.256 0.496 7.664 0.496 0.336 0 0.528 0 0.496-0.096 100 16.336 209.952 104.688 231.824 131.344 22.48-3.344 37.664-3.84 56.48-3.84 7.936 0 16.496 0.096 26.528 0.096 282.752 0 512 171.904 512 384 0 212.064-229.248 384-512 384v0z" />
<glyph unicode="&#xe07e;" glyph-name="camcorder" d="M638.128 736.624c1.28 0 2.32-1.008 2.32-2.24v-127.872c0-23.664 13.056-45.424 34-56.528 9.408-5.008 19.712-7.472 30-7.472 12.56 0 27.056 3.68 37.84 10.992l217.712 123.232v-456.416l-218.912 119.52c-10.976 7.664-23.776 11.536-36.656 11.536-10.128 0-20.256-2.4-29.568-7.216-21.12-11.024-34.4-32.88-34.432-56.688l-0.16-125.84c0-1.248-1.008-2.256-2.288-2.256h-571.696c-1.28 0-2.288 0.992-2.288 2.224l0.16 572.784c0 1.248 1.008 2.24 2.288 2.24h571.68M990.368 768.656c-6.816 0-20.288-2.016-27.968-9.664l-257.968-152.48v127.872c0 36.56-29.68 66.24-66.32 66.24h-571.68c-36.672 0-66.288-29.664-66.288-66.24l-0.144-572.752c0-36.56 29.632-66.256 66.288-66.256h571.712c36.656 0 66.288 29.68 66.288 66.256l0.16 125.744 262.976-153.312c7.712-7.68 16.256-6.688 23.088-6.688 7.088 0 12.368 2.16 13.024 2.432 12.432 5.184 20.464 17.184 20.464 30.688v574.976c0 13.504-8.032 25.552-20.464 30.656-0.72 0.32-6.032 2.528-13.168 2.528v0z" />
<glyph unicode="&#xe07f;" glyph-name="camera" d="M928 736h-147.184l-76.816 128h-384l-76.8-128h-147.2c-32 0-96-32-96-95.008v-512.992c0-53.008 48-96 89.328-96h840.672c42 0 94 44.992 94 94.992v513.008c0 32-32 96-96 96zM960 126.992c0-12.624-20.464-30.288-30-31.008h-840.48c-7.408 0.608-25.52 15.040-25.52 32.016v512.992c0 20.272 27.232 30.496 32 31.008h183.44l76.8 128h313.648l57.12-96.944 17.6-31.056h183.392c22.56 0 31.68-29.472 32-32v-513.008zM512 640c-123.712 0-224-100.288-224-224s100.288-224 224-224 224 100.288 224 224-100.288 224-224 224zM512 256c-88.224 0-160 71.776-160 160s71.776 160 160 160 160-71.776 160-160-71.776-160-160-160z" />
<glyph unicode="&#xe080;" glyph-name="check" d="M512 960c-282.768 0-512-229.232-512-512 0-282.784 229.232-512 512-512 282.784 0 512 229.216 512 512 0 282.768-229.216 512-512 512zM512-1.008c-247.024 0-448 201.984-448 449.008s200.976 448 448 448 448-200.976 448-448-200.976-449.008-448-449.008zM716.336 635.344l-300.4-302.288-135.28 135.28c-12.496 12.496-32.752 12.496-45.264 0-12.496-12.496-12.496-32.752 0-45.248l158.384-158.4c12.496-12.48 32.752-12.48 45.264 0 1.44 1.44 2.672 3.008 3.792 4.64l318.784 320.752c12.48 12.496 12.48 32.752 0 45.264-12.512 12.496-32.768 12.496-45.28 0z" />
<glyph unicode="&#xe081;" glyph-name="clock" d="M512 960c-282.768 0-512-229.232-512-512 0-282.784 229.232-512 512-512 282.784 0 512 229.216 512 512 0 282.768-229.216 512-512 512zM512-1.008c-247.024 0-448 201.984-448 449.008s200.976 448 448 448 448-200.976 448-448-200.976-449.008-448-449.008zM544 460.992v307.008c0 17.664-14.336 32-32 32s-32-14.336-32-32v-320c0-9.056 3.792-17.2 9.856-23.008 0.528-0.624 0.96-1.296 1.536-1.888l158.384-158.4c12.496-12.48 32.752-12.48 45.248 0 12.496 12.496 12.496 32.768 0 45.264l-151.024 151.024z" />
<glyph unicode="&#xe082;" glyph-name="close" d="M512 960c-282.768 0-512-229.232-512-512 0-282.784 229.232-512 512-512 282.784 0 512 229.216 512 512 0 282.768-229.216 512-512 512zM512-1.008c-247.024 0-448 201.984-448 449.008s200.976 448 448 448 448-200.976 448-448-200.976-449.008-448-449.008zM693.008 629.008c-12.496 12.496-32.752 12.496-45.248 0l-135.76-135.76-135.76 135.76c-12.496 12.496-32.752 12.496-45.264 0-12.496-12.496-12.496-32.752 0-45.248l135.76-135.76-135.76-135.76c-12.496-12.48-12.496-32.768 0-45.248 12.496-12.496 32.752-12.496 45.264 0l135.76 135.76 135.76-135.76c12.496-12.496 32.752-12.496 45.248 0 12.496 12.48 12.496 32.768 0 45.248l-135.76 135.76 135.76 135.76c12.512 12.512 12.512 32.768 0 45.248z" />
<glyph unicode="&#xe086;" glyph-name="envelope" d="M1023.456 728c0.992 6.144 0.176 12.48-2.48 18.272-8.064 35.44-33.68 53.728-76.976 53.728h-832c-38.080 0-79.104-14-99.28-41.472-1.744-1.328-3.408-2.832-4.912-4.576-6.448-7.44-8.704-17.008-7.264-26.032-0.288-2.592-0.544-5.2-0.544-7.92v-512c0-53.024 58.992-112 112-112h832c53.024 0 80 58.976 80 112v512c0 2.832-0.368 5.312-0.544 8zM112 736h832c0.192 0 0.288 0 0.432 0l-432.432-344.656-430.688 343.248c9.792 1.808 21.84 1.408 30.688 1.408zM944 160h-832c-17.648 0-48 30.336-48 48v458.448l427.040-341.648c6.016-5.2 13.488-7.792 20.96-7.792s14.944 2.592 20.976 7.792l427.024 341.632v-458.432c0-17.664 1.664-48-16-48z" />
<glyph unicode="&#xe087;" glyph-name="eye" d="M515.472 638.592c-106.032 0-192-85.968-192-192 0-106.016 85.968-192 192-192s192 85.968 192 192c0 106.032-85.968 192-192 192zM515.472 318.592c-70.576 0-129.472 58.816-129.472 129.392s57.424 128 128 128c70.592 0 128-57.424 128-128s-55.936-129.392-126.528-129.392zM1023.68 455.424c-0.368 1.616-0.208 3.328-0.688 4.912-0.208 0.672-0.624 1.056-0.864 1.648-0.336 0.912-0.256 1.984-0.72 2.864-93.072 213.104-293.664 335.76-507.424 335.76s-418.368-122.432-511.488-335.552c-0.4-0.896-0.336-1.824-0.656-2.848-0.224-0.624-0.688-0.976-0.896-1.568-0.496-1.616-0.304-3.296-0.608-4.928-0.592-2.88-1.136-5.68-1.136-8.592 0-2.944 0.544-5.664 1.136-8.592 0.32-1.6 0.112-3.344 0.608-4.88 0.208-0.72 0.672-1.024 0.896-1.68 0.336-0.88 0.256-1.968 0.656-2.848 93.136-213.056 295.744-333.712 509.504-333.712 213.776 0 416.336 120.4 509.44 333.504 0.464 0.912 0.368 1.872 0.72 2.88 0.224 0.56 0.656 0.976 0.848 1.6 0.496 1.568 0.336 3.28 0.688 4.912 0.56 2.864 1.088 5.664 1.088 8.624 0 2.816-0.528 5.6-1.104 8.496zM512 159.408c-181.296 0-359.744 95.568-447.424 287.68 86.848 191.472 267.68 289.504 449.424 289.504 181.68 0 358.496-98.144 445.376-289.712-86.816-191.408-265.632-287.472-447.376-287.472z" />
<glyph unicode="&#xe088;" glyph-name="flag" d="M680 864.672c-160 0-202.656 96-405.312 96-130.688 0-210.688-98.688-210.688-98.688v-894.656c0-17.664 14.336-32 32-32s32 14.336 32 32v407.872c33.76 21.776 80.336 41.472 138.688 41.472 202.656 0 261.312-96 421.312-96s272 96 272 96v544c0 0-120-96-280-96zM896 449.28c-36.16-23.584-112.784-64.608-208-64.608-62.912 0-105.84 17.264-160.224 39.136-66.272 26.64-141.408 56.864-261.088 56.864-54.688 0-101.072-13.76-138.688-32.16v387.472c24.096 21.92 76.624 60.688 146.688 60.688 94.112 0 147.088-22.848 203.184-47.008 55.872-24.080 113.664-48.992 202.128-48.992 85.248 0 160.128 23.568 216 48.912v-400.304z" />
<glyph unicode="&#xe089;" glyph-name="folder" d="M354.752 784l78.624-77.248 20.112-18.752h506.512v-576h-896v672h288M384 848h-320c-35.344 0-64-28.656-64-64v-672c0-35.344 28.656-64 64-64h896c35.344 0 64 28.656 64 64v576c0 35.344-28.656 64-64 64h-480l-96 96z" />
<glyph unicode="&#xe08a;" glyph-name="heart" d="M287.984 845.84c31.376 0 88.096-15.008 180.096-105.616l45.616-44.912 44.928 45.632c63.872 64.896 131.84 105.2 177.376 105.2 61.408 0 109.808-21.008 157.008-68.096 44.464-44.368 68.992-103.36 68.992-166.112 0.032-62.784-24.448-121.824-69.408-166.672-3.664-3.712-196.992-212.304-358.96-387.104-7.632-7.248-16.352-8.32-20.992-8.32-4.576 0-13.2 1.024-20.8 8.096-39.472 43.904-325.552 362-358.816 395.232-44.528 44.416-69.024 103.456-69.024 166.224 0.016 62.752 24.512 121.728 69.040 166.144 43.296 43.264 93.984 60.304 154.944 60.304M287.984 909.84c-76.528 0-144-22.896-200.176-79.008-117.072-116.768-117.072-306.128 0-422.96 33.424-33.44 357.856-394.336 357.856-394.336 18.48-18.496 42.752-27.68 66.96-27.68 24.224 0 48.4 9.184 66.912 27.68 0 0 354.88 383.024 358.656 386.848 117.040 116.88 117.040 306.24 0 423.008-58.112 58-123.024 86.784-202.208 86.784-75.648 0-160-60.32-223.008-124.32-64.992 63.984-146.736 123.984-224.992 123.984v0z" />
<glyph unicode="&#xe08b;" glyph-name="info" d="M576 224h-32v286c0 0.336-0.096 0.656-0.096 1.008s0.096 0.656 0.096 0.992c0 17.664-14.336 32-32 32h-64c-17.664 0-32-14.336-32-32s14.336-32 32-32h32v-256h-32c-17.664 0-32-14.336-32-32s14.336-32 32-32h128c17.664 0 32 14.336 32 32s-14.336 32-32 32zM512 608c35.344 0 64 28.656 64 64s-28.656 64-64 64-64-28.656-64-64 28.656-64 64-64zM512 960c-282.768 0-512-229.232-512-512 0-282.784 229.232-512 512-512 282.784 0 512 229.216 512 512 0 282.768-229.216 512-512 512zM512-1.008c-247.024 0-448 201.984-448 449.008s200.976 448 448 448 448-200.976 448-448-200.976-449.008-448-449.008z" />
<glyph unicode="&#xe08c;" glyph-name="key" d="M655.696 960c-159.056 0-288-129.152-288-288.464 0-71.408 26.032-136.624 68.944-187.008-8.832 0.544-17.84-2.432-24.592-9.184l-322.384-324.384c-12.48-12.496-12.48-32.768 0-45.248 0.24-0.24 0.512-0.384 0.768-0.624 0.080-0.080 0.128-0.176 0.208-0.256l156.912-159.904c12.48-12.496 32.752-12.496 45.248 0s12.496 32.768 0 45.248l-135.472 138.064 82.496 83.008 135.728-138.32c12.48-12.496 32.752-12.496 45.248 0s12.48 32.768 0 45.248l-135.856 138.448 172.384 173.472c6.672 6.672 9.664 15.536 9.216 24.272 50.624-44.288 116.672-71.312 189.168-71.312 159.056 0 288 129.152 288 288.48-0.016 159.312-128.944 288.464-288.016 288.464zM655.696 448c-123.248 0-224 100.272-224 224 0 123.744 100.752 224 224 224s224-100.256 224-224c0-123.728-100.736-224-224-224z" />
<glyph unicode="&#xe08d;" glyph-name="link" d="M295.664 227.552c6.256-6.256 14.432-9.376 22.624-9.376s16.368 3.12 22.624 9.376l387.664 390.688c12.496 12.496 12.496 32.752 0 45.248s-32.752 12.496-45.248 0l-387.664-390.688c-12.512-12.496-12.512-32.752 0-45.248zM475.872 295.696c10.576-46.624-0.832-92.4-36.864-128.432l-129.248-125.248c-27.2-27.184-63.36-42.16-101.824-42.16s-74.624 14.976-101.808 42.16c-56.144 56.16-56.144 147.536-0.336 203.344l126.256 130.256c27.2 27.184 63.36 42.176 101.824 42.176 13.152 0 25.824-2.352 38.176-5.744l49.952 49.952c-27.872 13.024-57.952 19.792-88.128 19.792-53.232 0-106.464-20.32-147.072-60.928l-125.936-129.936c-81.216-81.216-81.216-212.912 0-294.16 40.608-40.624 93.84-60.912 147.072-60.912s106.464 20.288 147.072 60.912l128.944 124.944c62.128 62.128 75.568 148.72 42.656 224.72l-50.736-50.736zM963.136 899.216c-40.624 40.608-93.84 60.928-147.056 60.928-53.248 0-106.496-20.32-147.088-60.928l-128.928-124.944c-64.4-64.4-77.536-160.464-39.792-238.032l49.664 49.648c-14.704 49.104-3.408 104.336 35.056 142.832l129.248 125.248c27.216 27.184 63.344 42.176 101.84 42.176 38.432 0 74.624-14.992 101.808-42.176 56.128-56.16 56.128-147.536 0.32-203.344l-129.248-129.248c-27.184-27.184-63.376-42.16-101.808-42.16-9.808 0-18.432-0.992-27.84 0.928l-50.976-51.008c25.472-10.592 51.632-13.936 78.816-13.936 53.216 0 106.432 20.304 147.056 60.928l128.944 128.944c81.2 81.216 81.2 212.896-0.016 294.144z" />
<glyph unicode="&#xe08e;" glyph-name="lock" d="M800 576h-32v122.128c0 146.848-106.256 261.872-257.184 261.872-151.536 0-254.816-117.472-254.816-261.872v-122.128h-32c-70.592 0-128-57.408-128-128v-384c0-70.592 57.408-128 128-128h576c70.592 0 128 57.408 128 128v384c0 70.592-57.408 128-128 128zM320 698.128c0 109.088 74.56 197.872 190.816 197.872 115.056 0 193.184-86.912 193.184-197.872v-122.128h-384v122.128zM864 64c0-35.28-28.72-64-64-64h-576c-35.28 0-64 28.72-64 64v384c0 35.28 28.72 64 64 64h576c35.28 0 64-28.72 64-64v-384zM512 384c-35.344 0-64-28.656-64-64 0-23.632 12.96-44.032 32-55.12v-104.88c0-17.664 14.336-32 32-32s32 14.336 32 32v104.88c19.040 11.088 32 31.504 32 55.12 0 35.344-28.656 64-64 64z" />
<glyph unicode="&#xe08f;" glyph-name="lock-open" d="M800 574.896h-456.96l-16.56 74.272c-28.24 105.376 20.816 210.432 133.088 240.512 111.136 29.776 209.088-33.936 237.824-141.12l13.6-53.968c4.576-17.072 22.112-27.2 39.2-22.624 17.072 4.576 27.2 22.112 22.624 39.184l-13.616 53.968c-37.984 141.84-170.384 225.44-316.192 186.384-146.368-39.216-215.712-179.424-178.336-318.912l12.864-57.696h-53.536c-70.592 0-128-57.408-128-128v-384c0-70.592 57.408-128 128-128h576c70.592 0 128 57.408 128 128v384c0 70.592-57.408 128-128 128zM864 62.896c0-35.28-28.72-64-64-64h-576c-35.28 0-64 28.72-64 64v384c0 35.28 28.72 64 64 64h576c35.28 0 64-28.72 64-64v-384zM512 382.896c-35.344 0-64-28.656-64-64 0-23.632 12.96-44.032 32-55.12v-104.88c0-17.664 14.336-32 32-32s32 14.336 32 32v104.88c19.040 11.088 32 31.504 32 55.12 0 35.344-28.656 64-64 64z" />
<glyph unicode="&#xe090;" glyph-name="magnifier" d="M1014.64-9.040l-310.928 312.832c57.952 69.408 92.88 158.704 92.88 256.208 0 220.912-179.088 400-400 400s-400-179.088-400-400c0-220.912 179.088-400 400-400 100.368 0 192.048 37.056 262.288 98.144l310.496-312.448c12.496-12.496 32.768-12.496 45.264 0 12.48 12.496 12.48 32.752 0 45.264zM396.592 223.472c-185.856 0-336.528 150.672-336.528 336.528s150.672 336.528 336.528 336.528 336.528-150.672 336.528-336.528-150.672-336.528-336.528-336.528z" />
<glyph unicode="&#xe091;" glyph-name="magnifier-add" d="M1014.624-9.040l-283.024 284.768c60.608 72.4 97.088 165.76 97.088 267.712 0 230.064-185.504 416.56-415.552 416.56s-416.544-186.496-416.544-416.544c0-230.048 186.496-416.544 416.544-416.544 105.008 0 200.672 38.96 273.696 103.072l282.528-284.304c12.496-12.496 32.768-12.496 45.248 0 12.512 12.512 12.512 32.768 0.016 45.28zM412.592 192c-193.552 0-352 158.448-352 352s158.448 352 352 352 352-158.448 352-352-158.448-352-352-352zM572.592 576h-128v128c0 17.664-14.336 32-32 32s-32-14.336-32-32v-128h-128c-17.664 0-32-14.336-32-32s14.336-32 32-32h128v-128c0-17.664 14.336-32 32-32s32 14.336 32 32v128h128c17.664 0 32 14.336 32 32s-14.32 32-32 32z" />
<glyph unicode="&#xe092;" glyph-name="magnifier-remove" d="M1014.624-9.040l-283.024 284.768c60.608 72.4 97.088 165.76 97.088 267.712 0 230.064-185.504 416.56-415.552 416.56s-416.544-186.496-416.544-416.544c0-230.048 186.496-416.544 416.544-416.544 105.008 0 200.672 38.96 273.696 103.072l282.528-284.304c12.496-12.496 32.768-12.496 45.248 0 12.512 12.512 12.512 32.768 0.016 45.28zM412.592 192c-193.552 0-352 158.448-352 352s158.448 352 352 352 352-158.448 352-352-158.448-352-352-352zM572.592 576h-320c-17.664 0-32-14.336-32-32s14.336-32 32-32h320c17.664 0 32 14.336 32 32s-14.32 32-32 32z" />
<glyph unicode="&#xe093;" glyph-name="paper-clip" d="M172.72-47.632c-43.408 0-85.088 17.968-118.304 51.216-73.648 73.888-73.648 194.064-0.016 267.904l574.272 609.824c89.6 89.744 226.848 81.68 327.008-18.608 44.88-44.96 70.064-109.776 69.12-177.904-0.944-67.408-27.28-131.92-72.288-177.008l-434.016-462.048c-12.080-12.944-32.336-13.536-45.232-1.392-12.864 12.16-13.488 32.448-1.36 45.344l434.672 462.752c34 34.064 53.504 82.384 54.224 133.248 0.72 50.896-17.664 98.88-50.368 131.664-61.44 61.568-161.472 93.808-235.84 19.264l-574.256-609.824c-49.376-49.504-49.36-129.008-0.64-177.856 22.848-22.864 49.968-34 78.848-32.256 28.576 1.744 57.952 16.4 82.72 41.232l456.928 486.336c16.56 16.592 49.84 57.264 15.968 91.216-19.184 19.216-32.656 18.032-37.088 17.664-12.656-1.12-27.44-9.872-42.784-25.264l-343.92-365.776c-12.144-12.912-32.416-13.536-45.232-1.36-12.88 12.128-13.472 32.448-1.36 45.312l344.544 366.464c27.088 27.216 54.784 41.968 82.976 44.496 22 1.952 54.72-2.736 88.096-36.208 49.536-49.632 43.376-122.432-15.28-181.216l-456.928-486.304c-36.48-36.608-80.528-57.872-124.72-60.592-3.248-0.224-6.496-0.32-9.744-0.32z" />
<glyph unicode="&#xe094;" glyph-name="paper-plane" d="M1004.032 960c-6.096 0-13.52-1.728-22.096-5.36l-954.656-405.088c-34.368-14.576-36.544-42.688-4.832-62.448l269.76-168.032c31.712-19.744 73.648-62.080 93.184-94.048l161.712-264.768c9.28-15.184 20.496-22.72 31.28-22.72 11.92 0 23.28 9.152 31.024 27.232l408.256 953.744c11.056 25.872 4.752 41.488-13.632 41.488zM325.552 376.080l-218.656 136.208 733.616 311.248-472.192-480.192c-14.432 12.8-29.088 24.224-42.768 32.736zM572.72 44.736l-130.432 213.52c-7.696 12.608-17.856 26.048-29.184 39.392l474.384 482.384-314.768-735.296z" />
<glyph unicode="&#xe095;" glyph-name="plus" d="M512 960c-282.768 0-512-229.232-512-512 0-282.784 229.232-512 512-512 282.784 0 512 229.216 512 512 0 282.768-229.216 512-512 512zM512-1.008c-247.024 0-448 201.984-448 449.008s200.976 448 448 448 448-200.976 448-448-200.976-449.008-448-449.008zM736 480h-192v192c0 17.664-14.336 32-32 32s-32-14.336-32-32v-192h-192c-17.664 0-32-14.336-32-32s14.336-32 32-32h192v-192c0-17.664 14.336-32 32-32s32 14.336 32 32v192h192c17.664 0 32 14.336 32 32s-14.336 32-32 32z" />
<glyph unicode="&#xe096;" glyph-name="pointer" d="M515.664 960.368c-209.904 0-387.664-178.768-387.664-390.544 0-221.76 206.032-448.544 344.624-607.936 0.528-0.64 22.928-25.52 50.528-25.52h2.448c27.6 0 49.84 24.88 50.4 25.52 130.064 149.52 320 396.048 320 607.936 0 211.776-138.656 390.544-380.336 390.544zM528.496 4.816c-1.12-1.12-2.752-2.368-4.192-3.408-1.472 1.008-3.072 2.288-4.256 3.408l-16.736 19.248c-131.392 150.736-311.312 357.152-311.312 545.76 0 177.008 148.224 326.56 323.664 326.56 218.528 0 316.336-164 316.336-326.56 0-143.184-102.128-333.296-303.504-565.008zM513.12 766.592c-106.032 0-192-85.968-192-192s85.968-192 192-192 192 85.968 192 192-85.968 192-192 192zM513.12 446.592c-70.576 0-129.472 58.816-129.472 129.408 0 70.576 57.424 128 128 128 70.624 0 128-57.424 128-128 0.032-70.592-55.904-129.408-126.528-129.408z" />
</font>
</defs>
</svg>
